<?xml version="1.0" standalone="no"?>
<!DOCTYPE svg PUBLIC "-//W3C//DTD SVG 1.1//EN" "http://www.w3.org/Graphics/SVG/1.1/DTD/svg11.dtd" >
<svg xmlns="http://www.w3.org/2000/svg">
<metadata>Generated by IcoMoon</metadata>
<defs>
<font id="icomoon" horiz-adv-x="1024">
<font-face units-per-em="1024" ascent="960" descent="-64" />
<missing-glyph horiz-adv-x="1024" />
<glyph unicode="&#x20;" horiz-adv-x="512" d="" />
<glyph unicode="&#xe900;" glyph-name="tell" d="M518.948 319.871h-13.926c-95.708 0-173.285 76.645-173.285 171.119v184.108c0 94.512 77.578 171.119 173.285 171.119h13.926c95.708 0 173.324-76.607 173.324-171.119v-184.108c0-94.474-77.616-171.119-173.324-171.119zM773.325 496.463c0 21.066 17.285 38.094 38.577 38.094s38.577-17.028 38.577-38.094c0-171.385-131.393-312.908-299.895-331.913v-76.684c0-21.026-17.282-38.093-38.576-38.093-21.333 0-38.576 17.067-38.576 38.093v76.684c-168.541 19.005-299.932 160.528-299.932 331.913 0 21.066 17.282 38.094 38.577 38.094s38.576-17.028 38.576-38.094c0-142.281 117.234-258.049 261.356-258.049 144.083 0 261.317 115.767 261.317 258.049z" />
<glyph unicode="&#xe901;" glyph-name="div1" d="M460.393 785.727c-26.694 0-49.404-18.55-55.779-43.552h214.351c-6.375 25.002-29.085 43.552-55.779 43.552h-102.793zM679.525 742.175h78.89c83.668 0 151.798-68.958 151.798-153.642 0 0-2.389-35.85-3.188-85.774-0.082-3.952-1.993-7.823-5.14-10.162-19.162-14.154-36.693-25.849-38.291-26.655-66.137-44.359-142.991-75.571-224.867-91.097-5.339-1.049-10.598 1.734-13.307 6.493-22.949 39.761-65.819 65.651-113.63 65.651-47.492 0-90.761-25.607-114.387-65.409-2.749-4.678-7.928-7.38-13.227-6.371-81.198 15.565-158.054 46.738-223.793 90.33l-38.248 26.615c-3.187 2.017-5.18 5.646-5.18 9.678-1.195 20.567-3.187 86.701-3.187 86.701 0 84.685 68.13 153.642 151.799 153.642h78.489c7.57 58.472 56.576 104.041 116.339 104.041h102.793c59.763 0 108.769-45.569 116.339-104.041zM896.662 415.53l-1.591-0.806c-80.48-54.037-177.295-89.927-278.895-104.848-14.344-2.016-28.686 7.259-32.671 21.776-8.765 33.067-37.053 54.843-70.919 54.843h-1.195c-33.866 0-62.153-21.776-70.919-54.843-3.984-14.518-18.328-23.792-32.67-21.776-101.598 14.921-198.414 50.811-278.895 104.848-0.398 0.403-4.383 2.823-7.57 0.806-3.585-2.016-3.585-6.855-3.585-6.855l2.789-205.663c0-84.685 67.731-153.238 151.4-153.238h479.696c83.674 0 151.402 68.553 151.402 153.238l3.188 205.663c0 0 0 4.839-3.584 6.855-1.993 1.21-4.383 0.807-5.98 0zM541.671 246.566c0-16.937-13.148-30.249-29.882-30.249-16.336 0-29.882 13.312-29.882 30.249v52.019c0 16.534 13.546 30.245 29.882 30.245 16.734 0 29.882-13.711 29.882-30.245v-52.019z" />
<glyph unicode="&#xe902;" glyph-name="tele" horiz-adv-x="1170" d="M54.492 533.513l1037.853 400.161c48.172 17.402 90.244-11.751 74.635-84.589l0.088 0.090-176.713-832.527c-13.1-59.019-48.172-73.377-97.236-45.568l-269.108 198.334-129.799-125.045c-14.352-14.351-26.462-26.463-54.269-26.463l19.106 273.86 498.743 450.574c21.709 19.106-4.842 29.871-33.456 10.854l-616.346-388.051-265.698 82.885c-57.678 18.299-58.934 57.678 12.199 85.486z" />
<glyph unicode="&#xe903;" d="M1023.802 503.99c-0.73-10.4-2.067-20.749-4-30.993-6.477-39.222-19.738-77.016-39.187-111.687-9.306-16.567-54.074-79.485-67.757-96.049-75.667-91.123-202.432-196.294-414.266-298.579-4.469-2.157-9.433-3.091-14.38-2.694-4.947 0.403-9.699 2.112-13.766 4.954s-7.303 6.72-9.374 11.232c-2.071 4.512-2.902 9.491-2.408 14.432l10.703 96.141c0.81 7.354-1.332 14.733-5.957 20.506-4.625 5.779-11.353 9.485-18.707 10.304-70.472 7.046-139.119 26.624-202.713 57.798-145.194 71.757-241.989 199.919-241.989 345.95 0 224.864 229.146 406.821 511.901 406.821 142.032 0 270.467-46.537 362.986-120.343 86.65-69.339 142.118-163.436 148.077-267.864 0.992-13.284 1.274-26.613 0.838-39.928z" />
<glyph unicode="&#xe904;" d="M370.757 435.219c2.476-2.422 4.437-5.32 5.764-8.518s1.995-6.633 1.961-10.097c0.012-3.442-0.655-6.853-1.964-10.037s-3.233-6.077-5.663-8.516c-2.429-2.438-5.317-4.373-8.496-5.693s-6.588-2-10.030-2h-104.707c-6.954 0.024-13.615 2.797-18.532 7.715s-7.69 11.579-7.715 18.532v197.78c-0.023 3.462 0.649 6.893 1.976 10.090s3.282 6.096 5.75 8.524c3.663 3.675 8.337 6.177 13.427 7.188s10.364 0.485 15.154-1.51c4.79-1.996 8.878-5.372 11.744-9.697s4.38-9.406 4.35-14.595v-171.533h78.554c3.427 0.026 6.823-0.636 9.988-1.948s6.035-3.244 8.44-5.684zM456.012 620.061v-209.135c-0.024-5.423-2.189-10.617-6.024-14.451s-9.028-6-14.452-6.024h-11.727c-5.431 0-10.639 2.157-14.479 5.997s-5.997 9.048-5.997 14.479v209.135c0 5.43 2.157 10.639 5.997 14.479s9.048 5.997 14.479 5.997h11.448c2.709 0.024 5.396-0.486 7.907-1.503s4.796-2.52 6.725-4.422c1.928-1.903 3.462-4.167 4.513-6.664s1.598-5.177 1.61-7.886zM699.117 614.384v-196.663c0.006-7.074-2.739-13.873-7.654-18.961s-11.616-8.067-18.682-8.308c-6.63 0.106-12.973 2.696-17.779 7.26-0.928 0.744-36.112 46.536-65.988 85.068-22.337 28.76-41.697 53.889-41.697 53.889v-119.971c0.018-5.085-1.448-10.065-4.216-14.33s-6.721-7.631-11.372-9.685c-4.652-2.054-9.801-2.708-14.819-1.881s-9.684 3.099-13.431 6.537c-2.702 2.448-4.86 5.436-6.335 8.771s-2.234 6.941-2.227 10.588v196.57c-0.086 6.911 2.481 13.591 7.174 18.664s11.152 8.154 18.049 8.606c3.903 0.063 7.772-0.738 11.328-2.347s6.712-3.987 9.241-6.961c1.117-1.303 55.192-71.666 85.627-111.687 12.1-15.636 20.474-26.619 20.474-26.619v120.995c0.051 6.921 2.822 13.545 7.718 18.44 4.89 4.894 11.514 7.665 18.438 7.714 6.854 0.001 13.44-2.691 18.33-7.495s7.699-11.338 7.821-18.193zM791.072 489.388v-46.536h78.464c3.571 0.212 7.149-0.307 10.515-1.528 3.36-1.22 6.438-3.116 9.043-5.569s4.678-5.414 6.099-8.7c1.421-3.285 2.15-6.826 2.15-10.404s-0.73-7.119-2.15-10.404c-1.421-3.285-3.494-6.246-6.099-8.7s-5.683-4.349-9.043-5.569c-3.366-1.22-6.944-1.74-10.515-1.527h-104.986c-6.944 0.024-13.6 2.801-18.502 7.72s-7.654 11.581-7.654 18.527v197.686c0.026 6.929 2.79 13.567 7.686 18.467 4.902 4.899 11.539 7.663 18.47 7.687h104.704c3.571 0.213 7.149-0.307 10.515-1.527s6.445-3.116 9.050-5.569c2.598-2.454 4.678-5.414 6.093-8.7 1.421-3.285 2.15-6.826 2.15-10.404s-0.73-7.119-2.15-10.404c-1.414-3.285-3.494-6.246-6.093-8.7-2.605-2.454-5.683-4.349-9.050-5.569s-6.944-1.74-10.515-1.527h-78.182v-46.536h78.464c6.938 0 13.587-2.756 18.49-7.66 4.909-4.905 7.661-11.557 7.661-18.493s-2.752-13.588-7.661-18.493c-4.902-4.904-11.552-7.66-18.49-7.66l-78.464 0.093z" />
<glyph unicode="&#xe905;" glyph-name="insta" d="M707.661 960h-391.323c-174.559 0-316.338-141.779-316.338-316.338v-391.323c0-174.56 141.779-316.339 316.338-316.339h391.323c174.56 0 316.339 141.779 316.339 316.339v391.323c0 174.559-141.779 316.338-316.339 316.338zM909.677 251.93c0-111.456-90.56-202.426-202.426-202.426h-391.324c-111.455 0-202.423 90.56-202.423 202.426v391.323c0 111.456 90.557 202.424 202.423 202.424h391.324c111.456 0 202.426-90.558 202.426-202.424v-391.323zM511.839 709.625c-144.237 0-261.839-117.602-261.839-261.839 0-144.234 117.602-261.84 261.839-261.84s261.837 117.606 261.837 261.84c0 144.237-117.6 261.839-261.837 261.839zM511.839 288.8c-87.69 0-158.989 71.297-158.989 158.986s71.299 158.989 158.989 158.989c87.689 0 158.989-71.299 158.989-158.989s-71.3-158.986-158.989-158.986zM793.658 680.943c24.122 3.928 40.493 26.669 36.563 50.792s-26.669 40.494-50.79 36.565c-24.122-3.928-40.493-26.669-36.57-50.792 3.93-24.124 26.675-40.494 50.797-36.565z" />
<glyph unicode="&#xe906;" glyph-name="x" d="M607.315 526.406l373.011 433.594h-88.39l-323.887-376.484-258.686 376.484h-298.363l391.184-569.31-391.184-454.69h88.396l342.031 397.58 273.19-397.58h298.362l-405.664 590.406zM486.244 385.674l-354.997 507.782h135.772l624.956-893.937h-135.77l-269.961 386.154z" />
<glyph unicode="&#xe907;" glyph-name="tw" d="M1024 765.504c-38.080-16.704-78.656-27.776-120.96-33.152 43.52 25.984 76.736 66.816 92.352 116.032-40.576-24.192-85.376-41.28-133.12-50.816-38.528 41.024-93.44 66.432-153.344 66.432-116.224 0-209.792-94.336-209.792-209.984 0-16.64 1.408-32.64 4.864-47.872-174.528 8.512-328.96 92.16-432.704 219.584-18.112-31.424-28.736-67.392-28.736-106.112 0-72.704 37.44-137.152 93.248-174.464-33.728 0.64-66.816 10.432-94.848 25.856v-2.304c0-102.016 72.768-186.752 168.192-206.272-17.088-4.672-35.712-6.912-55.040-6.912-13.44 0-27.008 0.768-39.744 3.584 27.2-83.136 104.384-144.256 196.16-146.24-71.424-55.872-162.112-89.536-260.288-89.536-17.216 0-33.728 0.768-50.24 2.88 92.992-59.968 203.2-94.208 322.048-94.208 386.304 0 597.504 320 597.504 597.376 0 9.28-0.32 18.24-0.768 27.136 41.664 29.568 76.672 66.496 105.216 108.992z" />
<glyph unicode="&#xe908;" glyph-name="increase" d="M512.016 740.556c15.519 0 30.402-6.165 41.376-17.138s17.141-25.857 17.141-41.376v-175.543h175.542c15.519 0 30.401-6.164 41.375-17.138s17.135-25.857 17.135-41.376c0-15.519-6.161-30.402-17.135-41.376s-25.856-17.141-41.375-17.141h-175.542v-175.542c0-15.519-6.168-30.401-17.141-41.375s-25.857-17.135-41.376-17.135c-15.519 0-30.403 6.161-41.376 17.135s-17.138 25.856-17.138 41.375v175.542h-175.543c-15.519 0-30.402 6.168-41.376 17.141s-17.138 25.857-17.138 41.376c0 15.519 6.165 30.403 17.138 41.376s25.857 17.138 41.376 17.138h175.543v175.543c0 15.519 6.164 30.402 17.138 41.376s25.857 17.138 41.376 17.138z" />
<glyph unicode="&#xe909;" glyph-name="reduce" d="M746.075 506.5h-468.116c-15.519 0-30.402-6.165-41.376-17.138s-17.138-25.857-17.138-41.376c0-15.519 6.165-30.403 17.138-41.376s25.857-17.137 41.376-17.137h468.116c15.519 0 30.401 6.164 41.375 17.137s17.135 25.857 17.135 41.376c0 15.519-6.161 30.402-17.135 41.376s-25.856 17.138-41.375 17.138z" />
<glyph unicode="&#xe90a;" glyph-name="plus2" d="M512 864c-82.278 0-162.707-24.398-231.117-70.109s-121.731-110.681-153.217-186.694c-31.486-76.016-39.724-159.658-23.673-240.355 16.052-80.694 55.671-154.819 113.85-212.998s132.303-97.798 212.998-113.85c80.698-16.051 164.342-7.814 240.355 23.674 76.013 31.485 140.986 84.803 186.694 153.216 45.712 68.41 70.109 148.838 70.109 231.117-0.115 110.294-43.981 216.038-121.971 294.028s-183.734 121.856-294.029 121.972zM512 96c-69.619 0-137.674 20.643-195.561 59.322s-103.003 93.654-129.645 157.974c-26.642 64.32-33.613 135.094-20.031 203.376s47.107 131.002 96.335 180.229c49.228 49.228 111.948 82.753 180.229 96.335s139.056 6.611 203.376-20.031c64.32-26.642 119.296-71.759 157.974-129.645s59.322-125.941 59.322-195.561c-0.106-93.325-37.226-182.794-103.216-248.784s-155.459-103.11-248.784-103.216zM704 448c0-8.486-3.373-16.627-9.373-22.627s-14.141-9.373-22.627-9.373h-128v-128c0-8.486-3.373-16.627-9.373-22.627s-14.141-9.373-22.627-9.373c-8.486 0-16.627 3.373-22.627 9.373s-9.373 14.141-9.373 22.627v128h-128c-8.486 0-16.627 3.373-22.627 9.373s-9.373 14.141-9.373 22.627c0 8.486 3.373 16.627 9.373 22.627s14.141 9.373 22.627 9.373h128v128c0 8.486 3.373 16.627 9.373 22.627s14.141 9.373 22.627 9.373c8.486 0 16.627-3.373 22.627-9.373s9.373-14.141 9.373-22.627v-128h128c8.486 0 16.627-3.373 22.627-9.373s9.373-14.141 9.373-22.627z" />
<glyph unicode="&#xe90b;" glyph-name="profile-line" d="M846.507 183.748c0-140.629-192.853-156.885-337.877-156.885l-10.377 0.009c-92.399 0.226-327.586 6.059-327.586 157.73 0 137.758 185.103 156.169 329.024 156.864l19.315 0.013c92.39-0.226 327.501-6.059 327.501-157.73zM508.629 277.487c-181.803 0-273.963-31.232-273.963-92.885 0-62.208 92.16-93.739 273.963-93.739 181.76 0 273.877 31.232 273.877 92.885 0 62.208-92.117 93.739-273.877 93.739zM508.629 874.667c124.928 0 226.517-101.632 226.517-226.56s-101.589-226.517-226.517-226.517h-1.365c-124.672 0.384-225.664 102.059-225.239 226.645 0 124.8 101.633 226.432 226.604 226.432zM508.629 813.739c-91.349 0-165.676-74.283-165.676-165.632-0.298-91.051 73.473-165.291 164.438-165.632l1.237-30.464v30.464c91.307 0 165.589 74.325 165.589 165.632 0 91.349-74.283 165.632-165.589 165.632z" />
<glyph unicode="&#xe90c;" glyph-name="heart-line" d="M522.027 787.664c69.376 43.861 161.536 55.979 241.152 30.464 173.184-55.851 226.944-244.651 178.859-394.879-74.197-235.947-391.083-411.947-404.523-419.328-4.779-2.645-10.069-3.968-15.36-3.968s-10.539 1.28-15.317 3.883c-13.355 7.296-327.938 180.693-404.61 419.371-0.043 0-0.043 0.043-0.043 0.043-48.128 150.271 5.461 339.114 178.475 394.879 81.237 26.283 169.772 14.72 241.367-30.464zM300.286 757.2c-139.989-45.141-175.147-195.712-137.131-314.452 59.819-186.112 296.151-336.597 358.956-373.845 63.019 37.632 301.056 189.781 358.955 373.675 38.016 118.868 2.731 269.439-137.472 314.623-67.925 21.803-147.157 8.533-201.856-33.792-11.435-8.789-27.307-8.96-38.827-0.256-57.941 43.563-133.634 56.32-202.626 34.048zM702.635 672.468c58.155-18.816 98.901-70.315 103.893-131.2 1.408-17.62-11.691-33.066-29.312-34.474-0.896-0.085-1.749-0.128-2.645-0.128-16.512 0-30.507 12.672-31.872 29.396-2.816 35.072-26.283 64.683-59.691 75.477-16.853 5.461-26.069 23.509-20.651 40.277 5.504 16.811 23.381 25.941 40.277 20.651z" />
<glyph unicode="&#xe90d;" glyph-name="cart" d="M502.647 874.667c111.526 0 203.657-84.977 215.014-193.661l3.17-0.038c61.867 0 137.088-41.088 162.475-156.331l33.664-260.565c12.075-84.096-3.029-151.552-44.971-199.936-41.728-48.128-107.776-73.6-191.019-73.6h-356.18c-91.435 0-155.136 22.4-194.773 68.437-39.808 46.165-53.12 115.413-39.552 205.781l33.109 257.109c21.76 117.888 101.333 159.104 162.944 159.104 5.319 49.046 27.435 95.706 62.519 130.679 40.32 40.064 95.913 63.019 152.703 63.019h0.896zM720.832 616.969h-434.303c-18.816 0-81.707-7.595-99.755-105.045l-32.939-256c-10.709-71.808-2.432-123.776 24.661-155.221 26.752-31.061 74.624-46.165 146.304-46.165h356.18c44.715 0 105.771 8.917 142.635 51.499 29.269 33.749 39.339 84.011 29.952 149.419l-33.237 258.219c-14.165 63.616-51.541 103.296-99.499 103.296zM627.085 498.18c17.664 0 32.981-14.336 32.981-32s-13.355-32-31.019-32h-1.963c-17.664 0-32 14.336-32 32s14.336 32 32 32zM378.335 498.18c17.664 0 32.981-14.336 32.981-32s-13.397-32-31.061-32h-1.92c-17.664 0-32 14.336-32 32s14.336 32 32 32zM502.519 810.667h-0.64c-40.149 0-79.273-16.171-107.647-44.373-23.113-23.009-38.228-53.257-43.119-85.305l302.048-0.012c-10.961 73.311-74.359 129.69-150.643 129.69z" />
<glyph unicode="&#xe90e;" glyph-name="calendar2" d="M700.197 841.887l0.042-31.984c117.532-9.211 195.17-89.299 195.295-212.118l0.465-359.501c0.168-133.907-83.959-216.297-218.801-216.511l-329.385-0.424c-134.003-0.172-219.182 84.182-219.35 218.47l-0.464 355.278c-0.168 123.629 74.732 203.503 192.263 214.292l-0.042 31.984c-0.042 18.764 13.859 32.88 32.395 32.88 18.535 0.042 32.437-14.031 32.479-32.795l0.042-29.851 250.227 0.341-0.042 29.851c-0.042 18.764 13.861 32.837 32.396 32.88 18.115 0.042 32.438-14.030 32.479-32.795zM192.917 581.922l637.789 0.853v14.926c-1.815 91.688-47.816 139.791-130.383 146.956l0.042-32.837c0-18.338-14.28-32.88-32.391-32.88-18.539-0.042-32.479 14.457-32.479 32.795l-0.042 34.543-250.231-0.341 0.042-34.5c0-18.38-13.86-32.879-32.395-32.879-18.535-0.043-32.479 14.414-32.479 32.794l-0.042 32.837c-82.146-8.231-127.6-56.505-127.473-149.003l0.042-13.263zM650.235 388.101v-0.47c0.424-19.619 16.431-34.499 35.849-34.076 18.958 0.47 34.081 16.719 33.662 36.333-0.884 18.767-16.095 34.076-35.007 34.034-19.382-0.428-34.546-16.207-34.504-35.821zM685.033 196.622c-19.377 0.424-35.007 16.589-35.049 36.203-0.424 19.619 15.123 35.868 34.499 36.338h0.424c19.8 0 35.849-16.165 35.849-36.208 0.042-20.042-15.965-36.291-35.724-36.333zM476.677 387.416c0.842-19.619 16.891-34.928 36.273-34.076 18.953 0.898 34.081 17.101 33.233 36.72-0.461 19.191-16.049 34.118-35.002 34.076-19.382-0.856-34.546-17.101-34.504-36.72zM513.117 198.54c-19.377-0.852-35.389 14.457-36.273 34.076 0 19.614 15.123 35.821 34.504 36.715 18.953 0.042 34.583-14.881 35.007-34.029 0.884-19.661-14.28-35.863-33.238-36.762zM303.118 385.922c0.842-19.614 16.892-34.97 36.271-34.071 18.957 0.852 34.080 17.101 33.195 36.715-0.421 19.191-16.008 34.118-35.007 34.076-19.378-0.852-34.501-17.101-34.459-36.72zM339.557 198.326c-19.378-0.894-35.386 14.457-36.271 34.076-0.042 19.614 15.123 35.863 34.501 36.715 18.957 0.047 34.586-14.881 35.007-34.071 0.885-19.619-14.239-35.863-33.237-36.72z" />
<glyph unicode="&#xe90f;" glyph-name="calendar" d="M700.197 841.888l0.042-31.984c117.532-9.211 195.17-89.299 195.295-212.118l0.465-359.501c0.168-133.907-83.959-216.297-218.801-216.511l-329.385-0.424c-134.003-0.172-219.182 84.182-219.35 218.47l-0.463 355.278c-0.168 123.629 74.732 203.504 192.263 214.293l-0.042 31.984c-0.042 18.764 13.859 32.88 32.395 32.88 18.535 0.042 32.437-14.030 32.479-32.795l0.042-29.851 250.227 0.341-0.042 29.851c-0.042 18.764 13.861 32.837 32.396 32.88 18.115 0.043 32.438-14.030 32.479-32.794zM192.916 581.922l637.79 0.853v14.926c-1.815 91.688-47.816 139.791-130.383 146.956l0.042-32.837c0-18.338-14.28-32.879-32.396-32.879-18.534-0.043-32.479 14.457-32.479 32.794l-0.042 34.543-250.227-0.341 0.042-34.5c0-18.38-13.859-32.88-32.395-32.88-18.536-0.042-32.479 14.414-32.479 32.794l-0.042 32.837c-82.146-8.23-127.6-56.505-127.474-149.003l0.042-13.263zM650.235 388.101v-0.47c0.424-19.619 16.431-34.499 35.849-34.076 18.958 0.47 34.081 16.719 33.662 36.333-0.889 18.767-16.095 34.076-35.007 34.034-19.382-0.428-34.546-16.207-34.504-35.821zM685.033 196.622c-19.377 0.424-35.007 16.589-35.049 36.203-0.424 19.619 15.123 35.868 34.499 36.338h0.424c19.796 0 35.849-16.165 35.849-36.208 0.042-20.042-15.965-36.291-35.724-36.333zM476.677 387.416c0.842-19.619 16.891-34.928 36.273-34.071 18.953 0.894 34.076 17.096 33.233 36.715-0.461 19.191-16.049 34.118-35.007 34.076-19.377-0.856-34.541-17.101-34.499-36.72zM513.117 198.54c-19.377-0.852-35.389 14.457-36.273 34.076 0 19.614 15.123 35.821 34.504 36.715 18.953 0.042 34.583-14.881 35.007-34.029 0.884-19.661-14.28-35.863-33.238-36.762zM303.118 385.922c0.842-19.614 16.893-34.97 36.271-34.071 18.957 0.852 34.080 17.101 33.195 36.715-0.421 19.191-16.008 34.118-35.007 34.076-19.378-0.852-34.501-17.101-34.459-36.72zM339.557 198.326c-19.378-0.894-35.386 14.457-36.271 34.076-0.042 19.614 15.123 35.863 34.501 36.715 18.957 0.047 34.585-14.881 35.006-34.071 0.885-19.619-14.238-35.863-33.237-36.72z" />
<glyph unicode="&#xe910;" glyph-name="website" d="M512 960c-282.453 0-512-229.547-512-512s229.547-512 512-512c32 0 63.148 2.988 93.868 8.532l-34.988 104.96c-5.12-5.12-10.668-9.384-16.212-13.224v62.292l-79.36 237.652c-4.268 12.376-5.976 25.176-5.976 37.548v-86.612c-40.532-1.708-80.212-5.12-117.759-11.52-7.68 40.104-12.8 83.624-14.933 130.56h132.692v-32.428c0 30.292 11.948 59.732 34.56 82.348 21.76 22.184 51.2 34.56 82.776 34.56 12.8 0 25.172-2.136 37.544-5.976l235.096-78.504h77.224c-0.852-8.536-1.704-16.64-3.412-24.748l82.348-27.308c5.544 30.72 8.532 61.868 8.532 93.868 0 282.453-229.548 512-512 512zM469.332 201.812v-165.544c-36.692 24.744-71.679 79.36-96.425 156.584 31.146 4.696 63.146 7.68 96.425 8.96zM153.6 678.827c34.133-16.214 72.533-29.867 114.347-40.96-8.96-45.654-14.507-94.72-16.64-146.347h-163.84c6.826 68.267 30.72 131.84 66.133 187.307zM87.467 406.188h163.84c2.133-52.48 7.68-101.976 16.64-148.056-41.814-11.092-80.214-24.744-114.347-40.96-36.784 56.841-59.459 121.642-66.133 189.016zM338.773 58.452c-48.623 21.616-92.763 52.15-130.133 90.028 24.32 10.668 51.2 19.628 79.787 26.88 13.653-43.948 30.72-83.628 50.346-116.908zM288.427 720.64c-28.587 7.253-55.467 16.213-79.787 26.88 37.12 37.547 81.067 68.267 130.133 90.027-19.626-33.28-36.693-72.96-50.346-116.907zM469.332 491.52h-132.692c2.133 46.080 7.253 89.173 14.933 128.853 37.547-6.4 77.227-9.813 117.759-11.52v-117.333zM469.332 694.187c-33.279 1.28-65.279 4.266-96.425 8.96 24.746 77.226 59.733 131.84 96.425 156.586v-165.546zM554.668 859.733c36.692-24.746 71.68-79.36 96.424-156.586-31.144-4.694-63.144-7.68-96.424-8.96v165.546zM554.668 491.52v117.333c40.532 1.707 80.212 5.12 117.76 11.52 7.68-39.68 12.8-82.773 14.932-128.853h-132.692zM685.228 837.547c49.064-21.76 93.012-52.48 130.132-90.027-24.32-10.667-51.2-19.627-79.788-26.88-13.652 43.947-30.72 83.627-50.344 116.907zM772.692 491.52c-2.132 51.627-7.68 100.693-16.64 146.347 41.816 11.093 80.216 24.746 114.348 40.96 35.412-55.467 59.308-119.040 66.132-187.307h-163.84zM721.748-63.995h-0.726c-6.591 0.149-12.972 2.332-18.274 6.246-5.302 3.919-9.263 9.384-11.338 15.639l-135.126 405.332c-1.88 5.641-2.16 11.697-0.791 17.482 1.364 5.79 4.31 11.082 8.518 15.286 4.203 4.208 9.495 7.154 15.286 8.518 5.786 1.368 11.841 1.089 17.482-0.791l405.332-135.126c6.246-2.090 11.697-6.056 15.602-11.357 3.91-5.302 6.088-11.683 6.237-18.264 0.149-6.586-1.736-13.056-5.399-18.53-3.668-5.474-8.932-9.681-15.076-12.051l-181.886-69.976-69.976-181.886c-2.318-6.042-6.414-11.236-11.748-14.899-5.329-3.663-11.646-5.623-18.115-5.623z" />
<glyph unicode="&#xe911;" glyph-name="left-arr" d="M726.656 425.342l-319.998-319.998c-2.973-2.976-6.503-5.331-10.387-6.944-3.885-1.606-8.048-2.438-12.253-2.438s-8.368 0.832-12.253 2.438c-3.885 1.613-7.414 3.968-10.387 6.944-2.973 2.97-5.332 6.502-6.941 10.387s-2.437 8.045-2.437 12.25c0 4.205 0.828 8.371 2.437 12.256s3.967 7.411 6.941 10.387l297.4 297.358-297.4 297.36c-6.004 6.004-9.378 14.148-9.378 22.64s3.373 16.636 9.378 22.64c6.004 6.004 14.148 9.378 22.64 9.378s16.636-3.373 22.64-9.378l319.998-320c2.976-2.972 5.338-6.501 6.95-10.386 1.606-3.885 2.438-8.049 2.438-12.254s-0.832-8.369-2.438-12.254c-1.613-3.885-3.974-7.414-6.95-10.386z" />
<glyph unicode="&#xe912;" glyph-name="left" d="M650.637 207.008c9.594 9.6 14.989 22.618 14.989 36.198 0 13.574-5.395 26.592-14.989 36.198l-168.604 168.599 168.604 168.602c9.325 9.657 14.483 22.59 14.368 36.015s-5.504 26.266-14.995 35.759c-9.491 9.493-22.333 14.877-35.758 14.994s-26.358-5.044-36.014-14.371l-204.8-204.8c-9.599-9.601-14.991-22.621-14.991-36.198s5.393-26.596 14.991-36.198l204.8-204.798c9.601-9.6 22.622-14.995 36.198-14.995s26.595 5.395 36.201 14.995z" />
<glyph unicode="&#xe913;" glyph-name="right" d="M373.366 688.994c-9.599-9.601-14.991-22.621-14.991-36.198s5.392-26.596 14.991-36.198l168.602-168.602-168.602-168.604c-9.327-9.651-14.487-22.586-14.371-36.013 0.116-13.421 5.501-26.266 14.994-35.757s22.335-14.88 35.759-14.995c13.425-0.115 26.358 5.043 36.014 14.368l204.797 204.803c9.6 9.601 14.995 22.621 14.995 36.198s-5.395 26.597-14.995 36.198l-204.797 204.8c-9.601 9.599-22.622 14.991-36.198 14.991s-26.597-5.392-36.198-14.991z" />
<glyph unicode="&#xe914;" glyph-name="more" horiz-adv-x="975" d="M97.524 350.476c53.861 0 97.525 43.661 97.525 97.524 0 53.86-43.663 97.524-97.525 97.524s-97.524-43.663-97.524-97.524c0-53.862 43.663-97.524 97.524-97.524zM487.619 350.476c53.862 0 97.524 43.661 97.524 97.524 0 53.86-43.661 97.524-97.524 97.524-53.86 0-97.524-43.663-97.524-97.524s43.663-97.524 97.524-97.524zM877.714 350.476c53.862 0 97.524 43.661 97.524 97.524 0 53.86-43.661 97.524-97.524 97.524s-97.524-43.663-97.524-97.524c0-53.862 43.661-97.524 97.524-97.524z" />
<glyph unicode="&#xe915;" glyph-name="up" d="M271.006 309.363c9.601-9.594 22.621-14.989 36.198-14.989s26.596 5.395 36.198 14.989l168.602 168.604 168.604-168.604c9.651-9.325 22.586-14.483 36.013-14.368 13.421 0.115 26.266 5.504 35.757 14.995s14.88 22.333 14.995 35.758c0.115 13.425-5.043 26.358-14.368 36.014l-204.803 204.8c-9.601 9.599-22.621 14.991-36.198 14.991s-26.596-5.392-36.198-14.991l-204.8-204.8c-9.599-9.601-14.991-22.622-14.991-36.198s5.392-26.595 14.991-36.201z" />
<glyph unicode="&#xe916;" glyph-name="down" d="M271.006 586.634c9.601 9.599 22.621 14.991 36.198 14.991s26.596-5.392 36.198-14.991l168.602-168.602 168.604 168.602c9.651 9.327 22.586 14.487 36.013 14.371 13.421-0.116 26.266-5.501 35.757-14.994s14.88-22.335 14.995-35.759c0.115-13.425-5.043-26.358-14.368-36.014l-204.803-204.797c-9.601-9.6-22.621-14.995-36.198-14.995s-26.596 5.395-36.198 14.995l-204.8 204.797c-9.599 9.601-14.991 22.622-14.991 36.198s5.392 26.597 14.991 36.198z" />
<glyph unicode="&#xe917;" glyph-name="double-check" horiz-adv-x="975" d="M569.949 609.127l-341.335-335.236c-5.7-5.608-13.375-8.753-21.371-8.753s-15.671 3.145-21.371 8.753l-146.286 143.657c-2.854 2.804-5.127 6.144-6.69 9.83s-2.384 7.641-2.418 11.644c-0.034 4.003 0.721 7.973 2.222 11.683s3.718 7.090 6.524 9.943c2.807 2.857 6.148 5.13 9.833 6.69 3.685 1.565 7.642 2.384 11.645 2.419s7.973-0.722 11.683-2.219c3.711-1.502 7.089-3.721 9.944-6.524l124.914-122.67 320 314.287c5.769 5.668 13.551 8.812 21.641 8.741 4.003-0.036 7.963-0.859 11.649-2.424s7.027-3.841 9.835-6.697c2.804-2.856 5.022-6.238 6.519-9.951 1.502-3.713 2.253-7.685 2.219-11.69s-0.858-7.963-2.423-11.649c-1.565-3.686-3.842-7.028-6.695-9.834h-0.039zM936.043 652.25c-2.804 2.859-6.149 5.137-9.835 6.703s-7.641 2.391-11.649 2.426c-4.003 0.036-7.977-0.719-11.688-2.22-3.716-1.501-7.095-3.72-9.952-6.528l-320-314.287-71.734 70.476c-5.769 5.666-13.551 8.806-21.634 8.728-8.084-0.073-15.807-3.355-21.47-9.128-5.663-5.769-8.802-13.551-8.727-21.636 0.075-8.080 3.358-15.804 9.127-21.465l93.065-91.429c5.7-5.608 13.375-8.753 21.372-8.753s15.672 3.145 21.372 8.753l341.333 335.236c2.862 2.803 5.14 6.142 6.71 9.827s2.399 7.643 2.438 11.648c0.039 4.005-0.712 7.979-2.209 11.694s-3.716 7.097-6.519 9.955z" />
<glyph unicode="&#xe918;" glyph-name="icon-upload" d="M295.753 573.254h94.542v-280.46c0-28.453 23.071-51.498 51.497-51.498h140.562c28.425 0 51.498 23.045 51.498 51.498v280.46h94.511c15.658 0 29.733 9.427 35.752 23.896 5.958 14.41 2.644 31.068-8.42 42.131l-216.292 216.321c-15.109 15.077-39.582 15.077-54.719 0l-216.259-216.321c-5.41-5.404-9.095-12.292-10.589-19.792s-0.728-15.274 2.2-22.339c6.016-14.44 20.061-23.896 35.718-23.896zM932.65 468.136c-25.628 0-46.42-20.792-46.42-46.448v-194.22c0-58.182-47.36-105.514-105.546-105.514h-537.361c-58.184 0-105.515 47.332-105.515 105.514v194.22c0 25.656-20.823 46.448-46.449 46.448-25.657 0-46.449-20.792-46.449-46.452v-194.22c0-109.4 89.006-198.414 198.413-198.414h537.361c109.41 0 198.419 89.009 198.419 198.414v194.22c0 25.661-20.792 46.452-46.452 46.452z" />
<glyph unicode="&#xe919;" d="M512 960c282.77 0 512-229.23 512-512s-229.23-512-512-512c-282.77 0-512 229.23-512 512s229.23 512 512 512z" />
<glyph unicode="&#xe91a;" d="M314.572 153.85c-16.786 0-33.572 6.381-46.337 19.232-25.616 25.606-25.616 67.040 0 92.653l418.952 418.87c25.619 25.611 67.059 25.611 92.672 0 25.619-25.612 25.619-67.044 0-92.655l-418.95-418.868c-12.764-12.851-29.551-19.232-46.337-19.232z" />
<glyph unicode="&#xe91b;" d="M733.734 153.6c-16.787 0-33.574 6.381-46.336 19.232l-419.304 419.305c-25.616 25.611-25.616 67.043 0 92.655 25.704 25.611 67.144 25.611 92.673 0l419.302-419.307c25.619-25.613 25.619-67.046 0-92.653-12.762-12.851-29.638-19.232-46.336-19.232z" />
<glyph unicode="&#xe91c;" glyph-name="chat2" horiz-adv-x="1075" d="M110.931 447.36c0 224.765 179.626 427.309 427.518 427.309 242.35 0 425.815-198.698 425.815-426.025 0-263.647-215.040-427.308-426.665-427.308-69.976 0-147.629 18.801-209.922 55.552-21.76 13.245-40.106 23.071-63.574 15.38l-86.186-25.636c-21.76-6.84-41.386 10.255-34.986 33.326l28.586 95.718c4.694 13.245 3.84 27.346-2.986 38.456-36.694 67.517-57.6 141.44-57.6 213.228zM482.131 447.36c0-30.336 24.32-54.692 54.614-55.122 30.295 0 54.615 24.786 54.615 54.697 0 30.338-24.32 54.694-54.615 54.694-29.867 0.427-54.614-24.357-54.614-54.269zM678.825 446.935c0-29.911 24.32-54.697 54.615-54.697 30.29 0 54.61 24.786 54.61 54.697 0 30.338-24.32 54.694-54.61 54.694-30.295 0-54.615-24.356-54.615-54.694zM340.051 392.238c-29.867 0-54.614 24.786-54.614 54.697 0 30.338 24.32 54.694 54.614 54.694s54.613-24.356 54.613-54.694c0-29.911-24.32-54.267-54.613-54.697z" />
<glyph unicode="&#xe91d;" d="M512.819 874.662c-247.892 0-427.519-202.24-427.519-426.668 0-71.68 20.906-145.49 57.6-212.905 6.826-11.095 7.68-25.175 2.986-38.4l-28.586-95.575c-6.4-23.040 13.226-40.105 34.986-33.28l86.186 25.6c23.467 7.68 41.814-2.13 63.616-15.36 62.294-36.69 139.904-55.465 209.878-55.465 211.628 0 426.668 163.415 426.668 426.666 0 226.986-183.47 425.386-425.815 425.386z" />
<glyph unicode="&#xe91e;" d="M511.124 392.955c-30.294 0.425-54.614 24.745-54.614 55.040 0 29.867 24.746 54.614 54.614 54.187 30.296 0 54.616-24.32 54.616-54.612 0-29.87-24.32-54.615-54.616-54.615zM314.414 392.955c-29.867 0-54.614 24.745-54.614 54.615 0 30.291 24.32 54.611 54.614 54.611s54.613-24.32 54.613-54.611c0-29.87-24.32-54.19-54.613-54.615zM653.194 447.57c0-29.87 24.32-54.615 54.615-54.615s54.615 24.745 54.615 54.615c0 30.292-24.32 54.612-54.615 54.612s-54.615-24.32-54.615-54.612z" />
<glyph unicode="&#xe91f;" glyph-name="typo" d="M572.805 136.694l-38.4 101.115h-327.306l-38.482-103.316c-15.046-40.269-27.837-67.42-38.455-81.556-10.59-14.116-28.002-21.156-52.153-21.156-20.52 0-38.62 7.455-54.409 22.472-15.734 15.022-23.601 32.046-23.601 51.108 0 10.921 1.788 22.339 5.446 33.971 3.686 11.745 9.737 28.088 18.155 48.881l205.972 522.908 21.126 54.134c8.307 21.070 17.082 38.51 26.379 52.428 9.459 14.019 22.098 25.603 36.887 33.806 15.156 8.582 33.861 12.901 56.251 12.901 22.721 0 41.728-4.291 56.802-12.901 14.677-8.109 27.289-19.488 36.859-33.256 9.325-13.533 17.192-28.084 23.574-43.653s14.551-36.337 24.454-62.386l210.4-519.608c16.476-39.552 24.673-68.244 24.673-86.231 0-18.734-7.757-35.871-23.378-51.359-7.301-7.537-16.067-13.507-25.764-17.531-9.692-4.024-20.106-6.026-30.602-5.873-12.79 0-23.736 2.309-32.87 6.876-8.991 4.449-16.881 10.834-23.107 18.703-6.298 7.864-12.954 19.999-20.050 36.198-6.231 14.397-12.365 28.841-18.401 43.325zM249.873 360.243h240.575l-121.416 332.336-119.16-332.336zM1004.913 155.064l-161.111 394.011c-6.001 15.861-12.252 31.624-18.76 47.285-4.813 11.634-10.844 22.726-17.987 33.091-7.311 10.408-16.906 19.001-28.058 25.114-11.5 6.492-25.887 9.737-43.131 9.682-17.029-0.082-31.222-3.383-42.721-9.93-11.218-6.254-20.787-15.089-27.919-25.774-7.096-10.617-13.67-23.903-19.942-39.912l-10.726-27.644 58.865-145.483 41.923 118.141 93.056-251.962-80.707-0.358 35.953-88.653c0.573-1.516 1.014-2.755 1.649-4.239l76.826 0.333 29.404-76.662c4.019-9.462 8.637-20.332 14.167-32.681 5.417-12.349 10.619-21.535 15.406-27.505 4.731-5.97 10.588-10.675 17.577-14.141 6.932-3.436 15.319-5.171 25.032-5.171 7.946-0.072 15.831 1.469 23.168 4.541 7.332 3.067 13.967 7.598 19.492 13.312 11.884 11.909 17.69 24.868 17.633 39.060-0.138 13.752-6.467 35.538-19.087 65.546z" />
<glyph unicode="&#xe920;" glyph-name="unfollow" d="M490.666 437.591c129.601 0 234.669 105.061 234.669 234.664s-105.068 234.667-234.669 234.667c-129.603 0-234.666-105.064-234.666-234.667s105.064-234.664 234.666-234.664zM859.822 371.712l-271.529-271.529c-6.001-6.001-9.37-14.136-9.37-22.615 0-8.484 3.369-16.614 9.37-22.615 5.996-5.996 14.131-9.364 22.61-9.364 8.484 0 16.62 3.369 22.615 9.364l271.529 271.534c6.001 5.996 9.37 14.131 9.37 22.61 0 8.484-3.369 16.62-9.37 22.615-5.996 5.996-14.131 9.364-22.61 9.364-8.484 0-16.62-3.369-22.615-9.364zM746.675 437.33c-123.648 0-224-100.352-224-224s100.352-224 224-224c123.648 0 224 100.352 224 224s-100.352 224-224 224zM746.675 373.33c88.32 0 160-71.68 160-160s-71.68-160-160-160c-88.32 0-160 71.68-160 160s71.68 160 160 160zM551.47 31.744c-45.997 49.27-71.545 114.181-71.466 181.586 0 71.808 28.459 137.047 74.712 185.006-20.91 1.618-42.286 2.473-64.045 2.473-141.739 0-267.222-35.456-345.131-88.576-59.434-40.535-92.202-92.032-92.202-146.089v-61.87c-0.017-9.528 1.848-18.97 5.487-27.776s8.981-16.809 15.72-23.547c6.738-6.738 14.742-12.083 23.549-15.724 8.808-3.635 18.248-5.504 27.778-5.484h425.599z" />
<glyph unicode="&#xe921;" glyph-name="upload" d="M749.457-1.626h-474.881c-104.32 0-189.227 84.864-189.227 189.227v208c0 104.32 84.907 189.185 189.227 189.185h39.808c17.664 0 32-14.336 32-32s-14.336-32.001-32-32.001h-39.808c-69.077 0-125.227-56.149-125.227-125.184v-208c0-69.077 56.149-125.227 125.227-125.227h474.881c69.035 0 125.227 56.149 125.227 125.227v208.384c0 68.821-55.979 124.8-124.757 124.8h-40.235c-17.664 0-32 14.337-32 32.001s14.336 32 32 32h40.235c104.064 0 188.757-84.695 188.757-188.801v-208.384c0-104.363-84.907-189.227-189.227-189.227zM512 296.917c-17.664 0-32 14.336-32 32v513.749c0 17.664 14.336 32 32 32s32-14.336 32-32v-513.749c0-17.664-14.336-32-32-32zM387.625 685.706c-8.149 0-16.341 3.115-22.571 9.344-12.501 12.459-12.587 32.683-0.085 45.227l124.375 124.928c11.989 12.075 33.323 12.075 45.312 0l124.416-124.928c12.459-12.544 12.416-32.768-0.085-45.227-12.544-12.459-32.768-12.459-45.227 0.085l-101.76 102.144-101.719-102.144c-6.229-6.315-14.464-9.429-22.656-9.429z" />
<glyph unicode="&#xe922;" glyph-name="view" d="M345.495 447.995c0-91.020 74.511-165.078 166.505-165.078 91.578 0 166.088 74.058 166.088 165.078 0 91.437-74.51 165.496-166.088 165.496-91.994 0-166.505-74.059-166.505-165.496zM756.759 702.031c72.848-56.268 134.87-138.602 179.409-241.622 3.328-7.862 3.328-16.966 0-24.413-89.079-206.038-247.678-329.332-424.169-329.332h-0.419c-176.076 0-334.672 123.294-423.751 329.332-3.33 7.447-3.33 16.552 0 24.413 89.080 206.040 247.675 328.92 423.751 328.92h0.419c88.246 0 171.916-30.617 244.759-87.298zM512.051 345.065c57.027 0 103.647 46.341 103.647 103.024 0 57.095-46.62 103.433-103.647 103.433-4.999 0-9.993-0.414-14.573-1.241-1.662-45.511-39.127-81.921-85.331-81.921h-2.081c-1.249-6.619-2.082-13.238-2.082-20.271 0-56.683 46.621-103.024 104.067-103.024z" />
<glyph unicode="&#xe923;" glyph-name="think" horiz-adv-x="992" d="M496 941.332c-272.023 0-493.332-221.309-493.332-493.332 0-272.026 221.309-493.334 493.332-493.334 272.026 0 493.334 221.309 493.334 493.334 0 272.023-221.309 493.332-493.334 493.332zM531.027 215.638c-18.746-18.253-51.306-18.253-70.051 0-8.931 9.373-14.307 22.202-14.307 35.027s5.376 25.654 14.307 35.027c9.373 8.88 22.198 14.307 35.024 14.307 12.829 0 25.654-5.427 35.027-14.307 8.88-9.373 14.307-22.202 14.307-35.027s-5.427-25.654-14.307-35.027zM545.334 398.666c0-27.232-22.051-49.334-49.334-49.334-27.28 0-49.331 22.102-49.331 49.334v246.667c0 27.232 22.051 49.333 49.331 49.333 27.283 0 49.334-22.101 49.334-49.333v-246.667z" />
<glyph unicode="&#xe924;" glyph-name="timeline" d="M981.335 618.666c0-46.933-38.4-85.333-85.335-85.333-7.363-0.115-14.7 0.892-21.76 2.986l-151.89-151.465c2.13-6.83 2.985-14.51 2.985-22.19 0-46.93-38.4-85.33-85.335-85.33-46.93 0-85.33 38.4-85.33 85.33 0 7.68 0.85 15.36 2.985 22.19l-108.799 108.798c-6.827-2.134-14.507-2.987-22.187-2.987s-15.36 0.854-22.186 2.987l-194.134-194.558c2.134-6.83 2.987-14.080 2.987-21.76 0-46.935-38.4-85.335-85.334-85.335s-85.333 38.4-85.333 85.335c0 46.93 38.4 85.33 85.333 85.33 7.68 0 14.934-0.85 21.76-2.985l194.56 194.134c-2.134 6.826-2.986 14.506-2.986 22.186 0 46.934 38.4 85.334 85.333 85.334s85.331-38.4 85.331-85.334c0-7.68-0.851-15.36-2.984-22.186l108.799-108.798c6.825 2.13 14.505 2.985 22.185 2.985s15.36-0.855 22.19-2.985l151.465 151.891c-2.094 7.060-3.103 14.397-2.985 21.76 0 46.934 38.4 85.334 85.33 85.334 46.935 0 85.335-38.4 85.335-85.334z" />
<glyph unicode="&#xe925;" glyph-name="toast" d="M970.849 610.278c-8.975 58.331-53.181 105.914-108.744 126.085-3.308-61.221-32.026-119.46-80.108-158.173v-348.009c0-74.435-60.564-134.999-134.999-134.999h-350.999v-26.998c0-44.667 36.335-81.004 81-81.004h432.001c44.662 0 80.998 36.337 80.998 81.004v376.274c57.247 33.114 91.105 98.821 80.85 165.821zM807.009 772.297c-11.971 77.81-83.43 136.503-166.246 136.503h-419.609c-82.818 0-156.074-58.693-168.045-136.53-10.256-66.973 23.605-132.68 80.849-165.796v-376.273c0-44.667 36.335-80.998 81-80.998h431.999c44.667 0 80.998 36.332 80.998 80.998v376.273c57.247 33.117 89.308 98.824 79.053 165.823zM531.046 484.711l-161.999-162.002c-10.548-10.547-27.632-10.547-38.18 0-10.546 10.547-10.546 27.638 0 38.18l162 162.002c10.546 10.546 27.632 10.546 38.179 0s10.547-27.634 0-38.18zM531.046 700.711l-161.999-162c-10.548-10.548-27.632-10.548-38.18 0-10.546 10.546-10.546 27.634 0 38.18l162 162c10.546 10.546 27.632 10.546 38.179 0s10.547-27.634 0-38.18z" />
<glyph unicode="&#xe926;" glyph-name="treeview" d="M944.036 228.229h-29.804v37.632c0 89.114-72.499 161.608-161.608 161.608h-203.924v139.186h89.4c44.088 0 79.959 35.87 79.959 79.962v194.096c0 44.090-35.871 79.962-79.959 79.962h-238.855c-44.090 0-79.96-35.87-79.96-79.962v-194.094c0-44.090 35.87-79.962 79.96-79.962h89.4v-139.188h-215.938c-89.112 0-161.606-72.494-161.606-161.603v-37.637h-31.14c-44.092 0-79.962-35.871-79.962-79.964v-92.974c0-44.088 35.87-79.959 79.962-79.959h122.332c44.090 0 79.96 35.871 79.96 79.959v92.974c0 44.093-35.87 79.964-79.96 79.964h-31.138v37.632c0 55.997 45.556 101.55 101.55 101.55h215.938v-139.182h-31.138c-44.092 0-79.962-35.871-79.962-79.964v-92.974c0-44.088 35.87-79.959 79.962-79.959h122.334c44.088 0 79.959 35.871 79.959 79.959v92.974c0 44.093-35.871 79.964-79.959 79.964h-31.14v139.182h203.924c55.997 0 101.555-45.553 101.555-101.55v-37.632h-32.476c-44.088 0-79.959-35.871-79.959-79.964v-92.974c0-44.088 35.871-79.959 79.959-79.959h122.332c44.093 0 79.964 35.871 79.964 79.959v92.974c0 44.093-35.871 79.964-79.964 79.964z" />
<glyph unicode="&#xe927;" glyph-name="star2" horiz-adv-x="945" d="M705.709 356.628c-10.201-9.886-14.887-24.182-12.564-38.203l35.013-193.772c2.954-16.423-3.978-33.044-17.723-42.535-13.47-9.846-31.39-11.028-46.080-3.151l-174.434 90.978c-6.065 3.23-12.8 4.962-19.692 5.159h-10.673c-3.702-0.551-7.326-1.733-10.634-3.545l-174.474-91.412c-8.625-4.332-18.393-5.868-27.963-4.332-23.316 4.411-38.873 26.624-35.052 50.058l35.052 193.772c2.324 14.139-2.363 28.514-12.564 38.558l-142.218 137.846c-11.894 11.54-16.029 28.869-10.594 44.505 5.278 15.596 18.747 26.978 35.013 29.538l195.742 28.396c14.887 1.536 27.963 10.594 34.658 23.985l86.252 176.837c2.048 3.938 4.687 7.562 7.877 10.634l3.545 2.757c1.851 2.048 3.978 3.742 6.341 5.12l4.293 1.575 6.695 2.757h16.581c14.809-1.536 27.845-10.398 34.658-23.631l87.394-176.049c6.302-12.879 18.55-21.819 32.689-23.985l195.742-28.396c16.542-2.363 30.366-13.785 35.84-29.538 5.159-15.793 0.709-33.122-11.422-44.505l-147.299-139.422z" />
<glyph unicode="&#xe928;" glyph-name="start" d="M348.203 849.919l-208-104.022c-27.094-13.525-44.203-41.259-44.203-71.552v-532.694c-0.001-13.638 3.484-27.053 10.126-38.963s16.219-21.933 27.821-29.101c11.603-7.168 24.846-11.251 38.472-11.866 13.626-0.608 27.181 2.278 39.378 8.378l165.035 82.56c2.225 1.114 4.679 1.696 7.168 1.696s4.943-0.582 7.168-1.696l213.077-106.534c11.103-5.549 23.344-8.435 35.755-8.435s24.653 2.886 35.757 8.435l208 103.974c27.136 13.53 44.243 41.261 44.243 71.552v532.694c0 13.633-3.488 27.040-10.131 38.947-6.637 11.907-16.211 21.92-27.808 29.089s-24.832 11.254-38.451 11.869c-13.619 0.615-27.168-2.26-39.366-8.353l-165.075-82.56c-4.525-2.219-9.813-2.219-14.336 0l-213.035 106.582c-11.114 5.56-23.37 8.456-35.797 8.456s-24.684-2.895-35.797-8.456zM384 703.999c8.487 0 16.627-3.371 22.627-9.372s9.373-14.141 9.373-22.628v-351.999c0-8.486-3.372-16.627-9.373-22.63-6.001-5.997-14.14-9.37-22.627-9.37s-16.626 3.373-22.627 9.37c-6.001 6.003-9.373 14.144-9.373 22.63v351.999c0 8.487 3.372 16.627 9.373 22.628s14.14 9.372 22.627 9.372zM672 575.999c0 8.487-3.373 16.627-9.37 22.628-6.003 6.001-14.144 9.372-22.63 9.372s-16.626-3.371-22.627-9.372c-6.001-6.001-9.373-14.141-9.373-22.628v-351.999c0-8.486 3.372-16.627 9.373-22.63 6.001-5.997 14.14-9.37 22.627-9.37s16.627 3.373 22.63 9.37c5.997 6.003 9.37 14.144 9.37 22.63v351.999z" />
<glyph unicode="&#xe929;" glyph-name="stepper" d="M153.211 621.933c11.716-11.716 30.71-11.716 42.426 0l84.854 84.854c11.716 11.716 11.716 30.71 0 42.426s-30.71 11.716-42.426 0l-63.64-63.64-21.212 21.212c-11.716 11.716-30.71 11.716-42.426 0.002s-11.716-30.71-0.002-42.426l42.426-42.428zM745.933 621.933c11.715-11.716 30.71-11.716 42.424 0l84.854 84.854c11.72 11.716 11.72 30.71 0 42.426-11.715 11.716-30.71 11.716-42.424 0l-63.642-63.64-21.212 21.214c-11.715 11.716-30.71 11.716-42.424 0-11.72-11.714-11.72-30.71 0-42.426l42.424-42.428zM449.573 621.933c11.716-11.716 30.71-11.716 42.426 0l84.851 84.854c11.715 11.716 11.715 30.71 0 42.426s-30.71 11.716-42.424 0l-63.639-63.638-21.214 21.214c-11.716 11.716-30.71 11.716-42.426 0-11.716-11.714-11.716-30.71 0-42.426l42.426-42.43zM559.872 517.999h-269.247l108.812-174.099c2.98-4.767 4.56-10.281 4.56-15.903s-1.58-11.131-4.56-15.898l-108.812-174.1h269.247l118.748 189.998-118.748 190.002zM219.872 518h-189.872c-16.568 0-30-13.432-30-30v-320.003c0-16.563 13.432-29.998 30-29.998h189.872l118.75 189.998-118.75 190.003zM1019.438 343.9l-99.999 160c-2.698 4.315-6.446 7.873-10.895 10.339s-9.457 3.761-14.546 3.761h-263.373l108.81-174.1c2.985-4.767 4.562-10.276 4.562-15.903 0-5.622-1.577-11.131-4.562-15.898l-108.81-174.1h263.373c5.089 0 10.097 1.295 14.546 3.763 4.449 2.463 8.197 6.021 10.895 10.337l99.999 160c2.98 4.767 4.562 10.276 4.562 15.898 0 5.627-1.582 11.136-4.562 15.903z" />
<glyph unicode="&#xe92a;" glyph-name="sw" d="M752.998 719h-481.998c-149.43 0-271-121.57-271-271 0-149.432 121.57-271.002 271-271.002h481.998c149.432 0 271.002 121.569 271.002 271.002 0 149.43-121.569 271-271.002 271zM752.998 237c-116.347 0-211 94.653-211 211 0 116.344 94.653 211 211 211s211-94.656 211-211c0-116.347-94.653-211-211-211z" />
<glyph unicode="&#xe92b;" glyph-name="spin" d="M245.772 232.98c-25.606 0-47.365-8.96-65.287-26.88-17.915-17.935-26.879-39.69-26.879-65.295 0-25.61 8.957-47.365 26.879-65.3 17.928-17.92 39.688-26.88 65.287-26.88 25.175 0 46.824 8.96 64.962 26.88 18.13 17.915 27.195 39.69 27.195 65.3 0 25.605-9.063 47.345-27.195 65.295-18.139 17.905-39.786 26.88-64.962 26.88zM225.293 427.525c0 28.16-10.022 52.26-30.078 72.331-20.053 20.054-44.164 30.078-72.323 30.078-28.162 0-52.268-10.026-72.323-30.078-20.051-20.056-30.075-44.162-30.075-72.331 0-28.155 10.022-52.25 30.075-72.31 20.056-20.060 44.161-30.085 72.323-30.085 28.159 0 52.27 10.025 72.323 30.085 20.056 20.050 30.078 44.155 30.078 72.31zM819.2 663.033c14.070 0 26.143 5.021 36.157 15.043 10.025 10.031 15.048 22.089 15.048 36.166 0 14.084-5.023 26.132-15.048 36.157-10.020 10.031-22.088 15.043-36.157 15.043-14.080 0-26.143-5.021-36.168-15.043-10.020-10.026-15.037-22.073-15.037-36.157s5.018-26.135 15.037-36.166c10.025-10.031 22.088-15.043 36.168-15.043zM245.779 826.876c-31.152 0-57.71-10.988-79.685-32.958-21.977-21.97-32.958-48.531-32.958-79.675 0-31.156 10.981-57.705 32.958-79.685 21.981-21.977 48.54-32.963 79.685-32.963s57.705 10.993 79.675 32.963c21.97 21.979 32.958 48.535 32.958 79.685 0 31.144-10.988 57.705-32.958 79.675s-48.531 32.958-79.675 32.958zM985.595 471.051c-11.94 11.948-26.45 17.915-43.51 17.915-17.075 0-31.58-5.967-43.525-17.915-11.935-11.948-17.905-26.456-17.905-43.536 0-17.055 5.97-31.585 17.905-43.505 11.95-11.955 26.45-17.92 43.525-17.92 17.060 0 31.575 5.965 43.51 17.92 11.955 11.93 17.915 26.45 17.915 43.505 0 17.070-5.955 31.582-17.915 43.536zM819.2 212.49c-19.635 0-36.49-7.035-50.575-21.12-14.065-14.070-21.11-30.93-21.11-50.57 0-19.62 7.045-36.485 21.11-50.57 14.085-14.080 30.94-21.11 50.575-21.11 19.625 0 36.475 7.045 50.56 21.11 14.085 14.085 21.12 30.94 21.12 50.57 0 19.64-7.035 36.485-21.12 50.57-14.080 14.085-30.935 21.12-50.56 21.12zM532.485 99.86c-22.612 0-41.922-8.018-57.931-24.018-15.993-16.005-23.996-35.302-23.996-57.917s7.993-41.912 23.996-57.917c16.010-16 35.31-24.008 57.931-24.008 22.615 0 41.917 8.008 57.917 24.008 16.005 16.005 24.003 35.302 24.003 57.917s-7.997 41.912-24.003 57.917c-16 16-35.302 24.018-57.917 24.018zM532.485 960c-34.127 0-63.154-11.941-87.049-35.834-23.889-23.895-35.834-52.915-35.834-87.046s11.941-63.139 35.834-87.037c23.895-23.888 52.915-35.836 87.049-35.836 34.145 0 63.15 11.941 87.040 35.836 23.885 23.887 35.83 52.904 35.83 87.037 0 34.128-11.945 63.141-35.83 87.046-23.89 23.886-52.895 35.834-87.040 35.834z" />
<glyph unicode="&#xe92c;" glyph-name="social" d="M512.056 320.522c70.349 0 127.38 57.027 127.38 127.375s-57.032 127.377-127.38 127.377c-70.347 0-127.375-57.029-127.375-127.377s57.028-127.375 127.375-127.375zM848.538 400.292c-10.752-5.007-20.372-12.155-28.278-21.002l-131.953 44.856c-3.057-22.851-10.552-44.882-22.067-64.85l132.004-44.877c1.377-18.632 8.673-36.337 20.823-50.529 12.15-14.188 28.524-24.125 46.72-28.355 18.202-4.224 37.274-2.524 54.436 4.859 17.167 7.383 31.519 20.060 40.965 36.178 9.446 16.123 13.491 34.836 11.546 53.422-1.946 18.58-9.779 36.055-22.364 49.864-12.58 13.814-29.251 23.24-47.57 26.911-18.319 3.666-37.33 1.377-54.262-6.528v0.051zM175.61 671.674c1.351 0.631 2.684 1.297 3.981 1.982l175.456-142.31c10.858 20.32 25.539 38.351 43.234 53.105l-175.582 142.382c5.521 19.225 4.294 39.759-3.476 58.19s-21.616 33.645-39.234 43.113c-17.618 9.468-37.947 12.62-57.605 8.931s-37.461-13.997-50.447-29.209c-12.986-15.212-20.374-34.412-20.933-54.405s5.742-39.576 17.858-55.49c12.115-15.914 29.314-27.202 48.735-31.985s39.895-2.773 58.014 5.695zM631.383 198.897l-31.565 94.392c-19.988-11.407-42.020-18.796-64.85-21.74l31.529-94.341c-1.802-1.331-3.461-2.703-5.135-4.142-18.811-16.256-31.324-38.6-35.348-63.135s0.686-49.705 13.322-71.117c12.631-21.417 32.379-37.719 55.798-46.065 23.419-8.351 49.024-8.207 72.356 0.389 23.327 8.602 42.895 25.114 55.296 46.669 12.396 21.55 16.84 46.766 12.549 71.255-4.291 24.494-17.044 46.7-36.029 62.751-18.99 16.051-43.008 24.929-67.871 25.083h-0.051zM659.625 546.982l163.333 163.333c22.226-10.781 47.549-13.339 71.485-7.22 23.931 6.118 44.918 20.518 59.244 40.643 14.321 20.125 21.048 44.674 18.99 69.289s-12.769 47.705-30.239 65.172c-17.464 17.466-40.556 28.179-65.172 30.238-24.612 2.058-49.162-4.67-69.289-18.993-20.122-14.323-34.524-35.313-40.643-59.244s-3.558-49.257 7.219-71.481l-163.4-163.26c19.123-12.892 35.584-29.351 48.471-48.476zM364.685 348.524l-179.725-180.321c-20.389 9.037-43.298 10.655-64.753 4.567s-40.101-19.497-52.705-37.893c-12.603-18.401-18.368-40.632-16.294-62.838s11.857-42.982 27.651-58.732c15.793-15.744 36.601-25.467 58.812-27.474s44.425 3.825 62.787 16.481c18.362 12.657 31.713 31.345 37.736 52.818s4.34 44.375-4.758 64.737l179.743 180.321c-19.117 12.846-35.581 29.256-48.494 48.333z" />
<glyph unicode="&#xe92d;" glyph-name="sharelink" d="M361.21 736.585c-9.517-12.854-8.424-31.191 3.6-42.827 12.8-12.8 33.707-12.8 46.507 0l67.84 68.267v-176.64h65.708v176.64l67.84-68.267 3.677-3.173c12.856-9.521 31.19-8.463 42.826 3.173 6.4 6.4 9.816 14.933 9.816 23.467 0 8.106-3.416 16.64-9.816 23.040l-124.16 124.586-3.868 3.478c-5.516 4.15-12.344 6.335-19.172 6.335-8.96 0-17.064-3.414-23.464-9.814l-124.162-124.586-3.173-3.68zM265.865 585.166c-100.406-4.743-180.53-89.204-180.53-192.099v-211.847l0.207-9.067c4.662-102.177 87.699-184.111 189.66-184.111l482.935 0.209c100.408 4.743 180.531 89.218 180.531 192.535v211.409l-0.205 9.104c-4.687 102.554-88.115 184.075-189.663 184.075h-203.944v-260.466l-0.307-4.58c-2.202-16.445-16.119-28.844-32.549-28.844-18.344 0-32.852 14.76-32.852 33.424v260.466l-213.283-0.21z" />
<glyph unicode="&#xe92e;" glyph-name="share" d="M787.699 329.846c-69.709 0-130.598-36.432-165.574-91.056l-210.865 120.515c13.587 26.782 21.976 56.596 21.976 88.694 0 19.811-3.821 38.557-9.256 56.596l219.411 125.362c35.962-38.992 87.078-63.805 144.307-63.805 108.742 0 196.922 88.183 196.922 196.924s-88.179 196.923-196.922 196.923c-108.742 0-196.924-88.183-196.924-196.923 0-19.811 3.821-38.557 9.255-56.596l-219.411-125.401c-35.959 39.031-87.080 63.843-144.305 63.843-108.74 0-196.923-88.143-196.923-196.923 0-108.74 88.183-196.922 196.923-196.922 44.899 0 85.78 15.597 118.902 40.915l237.686-137.76c-0.748-7.13-2.127-14.022-2.127-21.312 0-108.736 88.182-196.922 196.924-196.922s196.922 88.186 196.922 196.922c0 108.742-88.179 196.925-196.922 196.925z" />
<glyph unicode="&#xe92f;" glyph-name="setting" d="M870.47 380.579c15.262-8.108 27.034-20.908 35.319-33.708 16.133-26.452 14.825-58.88-0.87-87.464l-30.525-51.2c-16.133-27.308-46.22-44.376-77.177-44.376-15.262 0-32.265 4.268-46.22 12.8-11.338 7.256-24.418 9.816-38.372 9.816-43.166 0-79.36-35.416-80.668-77.656 0-49.064-40.113-87.464-90.256-87.464h-59.304c-50.579 0-90.694 38.4-90.694 87.464-0.872 42.24-37.063 77.656-80.23 77.656-14.39 0-27.47-2.56-38.371-9.816-13.953-8.532-31.394-12.8-46.22-12.8-31.395 0-61.481 17.068-77.615 44.376l-30.087 51.2c-16.133 27.732-17.005 61.012-0.872 87.464 6.976 12.8 20.057 25.6 34.883 33.708 12.209 5.972 20.058 15.788 27.47 27.308 21.802 36.692 8.721 84.904-28.342 106.665-43.168 24.32-57.121 78.506-32.267 120.746l29.214 50.347c25.29 42.24 79.359 57.173 122.962 32.427 37.935-20.48 87.207-6.827 109.445 29.44 6.976 11.946 10.9 24.746 10.029 37.546-0.872 16.64 3.924 32.427 12.209 45.227 16.133 26.453 45.348 43.52 77.177 44.373h61.482c32.265 0 61.482-17.92 77.615-44.373 7.848-12.8 13.079-28.587 11.771-45.227-0.87-12.8 3.053-25.6 10.031-37.546 22.239-36.267 71.508-49.92 109.88-29.44 43.166 24.746 97.671 9.813 122.526-32.427l29.217-50.347c25.288-42.24 11.334-96.426-32.27-120.746-37.059-21.762-50.143-69.974-27.904-106.665 6.977-11.52 14.825-21.336 27.034-27.308zM388.636 447.572c0-66.988 55.377-120.32 123.834-120.32 68.459 0 122.526 53.332 122.526 120.32 0 66.986-54.067 120.746-122.526 120.746-68.457 0-123.834-53.76-123.834-120.746z" />
<glyph unicode="&#xe930;" d="M914.236 849.993c-21.333 21.803-52.907 29.867-82.347 21.333l-686.506-198.357c-31.061-8.619-53.077-33.237-59.008-64.469-6.059-31.829 15.104-72.277 42.752-89.173l214.656-131.072c22.016-13.483 50.432-10.112 68.651 8.149l245.802 245.803c12.373 12.843 32.853 12.843 45.227 0 12.373-12.331 12.373-32.427 0-45.227l-246.229-245.803c-18.261-18.261-21.675-46.592-8.235-68.651l131.157-215.467c15.36-25.557 41.813-40.107 70.827-40.107 3.413 0 7.253 0 10.667 0.469 33.28 4.224 59.733 26.88 69.547 58.88l203.52 681.344c8.96 29.013 0.853 60.587-20.48 82.347z" />
<glyph unicode="&#xe931;" d="M128.448 242.871c-8.192 0-16.384 3.115-22.613 9.387-12.501 12.501-12.501 32.725 0 45.227l58.24 58.283c12.501 12.459 32.768 12.459 45.269 0 12.459-12.501 12.459-32.768 0-45.269l-58.283-58.24c-6.229-6.272-14.421-9.387-22.613-9.387zM288.925 191.996c-8.192 0-16.384 3.115-22.613 9.387-12.501 12.501-12.501 32.725 0 45.227l58.24 58.283c12.501 12.459 32.768 12.459 45.269 0 12.459-12.501 12.459-32.768 0-45.269l-58.283-58.24c-6.229-6.272-14.421-9.387-22.613-9.387zM299.75 39.761c6.229-6.272 14.421-9.387 22.613-9.387s16.384 3.115 22.613 9.387l58.283 58.24c12.459 12.501 12.459 32.768 0 45.269-12.501 12.459-32.768 12.459-45.269 0l-58.24-58.283c-12.501-12.501-12.501-32.725 0-45.227z" />
<glyph unicode="&#xe932;" glyph-name="save" d="M573.865 751.775h130.985c157.44 0 234.24-84.054 233.815-256.426v-207.789c0-164.69-101.545-266.24-266.665-266.24h-320.429c-164.267 0-266.24 101.55-266.24 266.67v320.425c0 176.64 78.506 266.24 233.386 266.24h67.414c39.722 0.426 76.8-17.92 101.12-49.066l37.549-49.92c11.945-14.934 29.865-23.894 49.065-23.894zM314.451 307.615h395.094c17.495 0 31.575 14.505 31.575 32 0 17.92-14.080 32-31.575 32h-395.094c-17.92 0-32-14.080-32-32 0-17.495 14.080-32 32-32z" />
<glyph unicode="&#xe933;" glyph-name="search11" d="M85.334 504.754c0 204.299 163.855 369.917 365.979 369.917 97.062 0 190.153-38.973 258.784-108.346 68.636-69.373 107.194-163.463 107.194-261.571 0-204.298-163.854-369.916-365.979-369.916s-365.979 165.618-365.979 369.916zM811.236 206.755l109-87.985h1.89c22.053-22.291 22.053-58.429 0-80.714-22.049-22.291-57.805-22.291-79.853 0l-90.456 103.666c-8.55 8.616-13.359 20.312-13.359 32.517s4.808 23.901 13.359 32.517c16.491 16.379 42.929 16.379 59.42 0z" />
<glyph unicode="&#xe934;" glyph-name="heart-1" horiz-adv-x="975" d="M487.619 14.638c-13.884 0-27.269 5.027-37.701 14.165-39.398 34.45-77.381 66.823-110.893 95.378l-0.171 0.151c-98.252 83.724-183.096 156.033-242.128 227.26-65.989 79.628-96.726 155.127-96.726 237.605 0 80.134 27.478 154.063 77.366 208.177 50.484 54.754 119.754 84.911 195.074 84.911 56.295 0 107.85-17.798 153.229-52.894 22.902-17.716 43.661-39.397 61.95-64.688 18.295 25.29 39.049 46.972 61.957 64.688 45.378 35.097 96.934 52.894 153.229 52.894 75.313 0 144.589-30.156 195.072-84.911 49.888-54.114 77.361-128.043 77.361-208.177 0-82.478-30.73-157.977-96.719-237.595-59.031-71.236-143.867-143.536-242.103-227.255-33.573-28.604-71.617-61.026-111.104-95.559-10.425-9.123-23.815-14.151-37.693-14.151zM272.441 825.158c-59.174 0-113.534-23.616-153.081-66.503-40.133-43.534-62.239-103.713-62.239-169.457 0-69.368 25.781-131.407 83.586-201.156 55.87-67.418 138.973-138.235 235.193-220.238l0.178-0.146c33.638-28.667 71.771-61.167 111.458-95.871 39.925 34.767 78.116 67.321 111.825 96.037 96.212 81.998 179.307 152.8 235.179 220.219 57.797 69.749 83.578 131.788 83.578 201.156 0 65.744-22.109 125.923-62.24 169.457-39.541 42.887-93.906 66.503-153.073 66.503-43.349 0-83.149-13.78-118.287-40.952-31.32-24.226-53.136-54.851-65.926-76.28-6.578-11.020-18.154-17.597-30.974-17.597s-24.398 6.577-30.975 17.597c-12.783 21.428-34.599 52.053-65.923 76.28-35.141 27.173-74.941 40.952-118.281 40.952z" />
<glyph unicode="&#xe935;" glyph-name="rigt-sm" d="M373.366 207.008c-9.599 9.6-14.991 22.618-14.991 36.198 0 13.574 5.392 26.592 14.991 36.198l168.602 168.6-168.602 168.601c-9.327 9.657-14.487 22.59-14.371 36.015s5.501 26.266 14.994 35.759c9.493 9.493 22.335 14.877 35.759 14.994s26.358-5.044 36.014-14.371l204.797-204.8c9.6-9.601 14.995-22.621 14.995-36.198s-5.395-26.597-14.995-36.198l-204.797-204.798c-9.601-9.6-22.622-14.995-36.198-14.995s-26.597 5.395-36.198 14.995z" />
<glyph unicode="&#xe936;" glyph-name="report" d="M128 864c8.487 0 16.626-3.372 22.627-9.373s9.373-14.14 9.373-22.627v-23.040l78.422 19.626c96.337 24.087 198.112 12.918 286.931-31.488l4.608-2.304c73.661-36.84 157.911-46.684 238.080-27.818l132.654 31.232c4.977 1.167 10.158 1.125 15.114-0.122s9.544-3.665 13.373-7.049c3.835-3.384 6.799-7.637 8.648-12.402s2.534-9.904 1.987-14.987c-15.877-146.59-15.805-294.471 0.215-441.047 0.855-7.767-1.167-15.58-5.678-21.965-4.511-6.38-11.203-10.89-18.811-12.677l-132.864-31.278c-94.74-22.298-194.294-10.67-281.346 32.855l-4.608 2.304c-75.149 37.581-161.26 47.037-242.774 26.665l-93.952-23.465v-231.040c0-8.489-3.372-16.625-9.373-22.625-6.001-6.006-14.14-9.375-22.627-9.375s-16.626 3.369-22.627 9.375c-6.001 6.001-9.373 14.136-9.373 22.625v768c0 4.202 0.828 8.364 2.436 12.246s3.965 7.41 6.937 10.381c2.971 2.972 6.499 5.329 10.381 6.937s8.044 2.436 12.246 2.436z" />
<glyph unicode="&#xe937;" glyph-name="rate" horiz-adv-x="1075" d="M790.118 349.010c-11.049-10.706-16.128-26.194-13.609-41.385l37.929-209.92c3.2-17.792-4.311-35.799-19.2-46.080-14.592-10.665-34.007-11.945-49.92-3.415l-188.969 98.56c-6.574 3.502-13.87 5.376-21.335 5.591h-11.561c-4.014-0.599-7.936-1.879-11.522-3.84l-189.014-99.031c-9.344-4.69-19.926-6.354-30.294-4.69-25.258 4.777-42.112 28.841-37.973 54.226l37.973 209.92c2.518 15.319-2.56 30.894-13.61 41.774l-154.070 149.331c-12.885 12.501-17.365 31.274-11.477 48.213 5.717 16.896 20.309 29.227 37.93 32l212.054 30.763c16.128 1.664 30.293 11.477 37.546 25.984l93.44 191.573c2.218 4.267 5.078 8.192 8.534 11.52l3.84 2.987c2.005 2.218 4.309 4.053 6.868 5.546l4.654 1.706 7.25 2.987h17.966c16.041-1.664 30.162-11.264 37.545-25.6l94.679-190.72c6.825-13.952 20.096-23.638 35.41-25.984l212.055-30.763c17.92-2.56 32.896-14.933 38.825-32 5.591-17.109 0.768-35.882-12.37-48.213l-159.575-151.042z" />
<glyph unicode="&#xe938;" glyph-name="progress" d="M210 238.761h391.999v60.001h-391.999c-16.542 0-30-13.455-30-29.998s13.458-30.003 30-30.003zM813.998 478.758h-603.998c-115.794 0-210-94.205-210-209.999s94.206-210.002 210-210.002h603.998c115.794 0 210.002 94.208 210.002 210.002s-94.208 209.999-210.002 209.999zM210 358.758h452.001v-179.999h-452.001c-49.626 0-90 40.371-90 89.999 0 49.623 40.374 89.999 90 89.999zM708.506 582.692l42.429-42.426 148.49 148.492-148.49 148.492-42.429-42.426 76.068-76.066h-257.572v-60h257.572l-76.068-76.066zM407 718.758h60v-60h-60v60zM287 718.758h60v-60h-60v60zM167 718.758h60v-60h-60v60z" />
<glyph unicode="&#xe939;" glyph-name="radio" d="M512.015-12.81c-254.501 0-460.803 206.305-460.803 460.805 0 254.503 206.302 460.805 460.803 460.805 254.505 0 460.805-206.302 460.805-460.805 0-254.5-206.3-460.805-460.805-460.805zM512.015 79.355c48.415 0 96.353 9.533 141.082 28.063 44.733 18.524 85.371 45.681 119.608 79.913 34.232 34.237 61.389 74.875 79.913 119.603 18.529 44.733 28.063 92.672 28.063 141.085s-9.533 96.354-28.063 141.083c-18.524 44.728-45.681 85.37-79.913 119.604-34.237 34.234-74.875 61.39-119.608 79.917-44.728 18.527-92.667 28.063-141.082 28.063-97.775 0-191.547-38.841-260.685-107.98s-107.98-162.91-107.98-260.686c0-97.775 38.841-191.548 107.98-260.688 69.138-69.135 162.91-107.976 260.685-107.976zM512.015 217.595c-61.105 0-119.709 24.274-162.917 67.482s-67.483 101.811-67.483 162.918c0 61.107 24.274 119.711 67.483 162.92s101.812 67.483 162.917 67.483c61.107 0 119.711-24.274 162.918-67.483 43.213-43.209 67.487-101.813 67.487-162.92s-24.274-119.711-67.487-162.918c-43.208-43.208-101.811-67.482-162.918-67.482z" />
<glyph unicode="&#xe93a;" glyph-name="range" d="M304.969 826.514h618.459c13.097 0 25.651-5.201 34.913-14.46 9.257-9.259 14.459-21.817 14.459-34.911s-5.202-25.652-14.459-34.911c-9.262-9.258-21.816-14.46-34.913-14.46h-618.459c-11.458-28.324-32.41-51.781-59.265-66.351s-57.943-19.346-87.933-13.51c-29.991 5.836-57.018 21.921-76.45 45.499s-30.058 53.18-30.058 83.734c0 30.553 10.627 60.155 30.058 83.734s46.459 39.663 76.45 45.499c29.991 5.836 61.078 1.060 87.933-13.511s47.807-38.027 59.265-66.351zM100.572 497.371c-13.094 0-25.652-5.201-34.911-14.46s-14.46-21.817-14.46-34.911c0-13.092 5.201-25.651 14.46-34.913 9.259-9.257 21.817-14.459 34.911-14.459h289.316c9.815-24.351 26.685-45.21 48.444-59.899 21.759-14.694 47.414-22.543 73.668-22.543s51.907 7.849 73.667 22.543c21.76 14.689 38.63 35.548 48.445 59.899h289.316c13.097 0 25.651 5.202 34.913 14.459 9.257 9.262 14.459 21.821 14.459 34.913 0 13.094-5.202 25.652-14.459 34.911-9.262 9.259-21.816 14.46-34.913 14.46h-289.316c-9.815 24.351-26.685 45.211-48.445 59.901s-47.411 22.539-73.667 22.539c-26.254 0-51.909-7.849-73.668-22.539s-38.629-35.551-48.444-59.901h-289.316zM51.2 118.856c0 13.097 5.201 25.651 14.46 34.913 9.259 9.257 21.817 14.459 34.911 14.459h618.461c11.459 28.324 32.41 51.784 59.264 66.35 26.854 14.572 57.943 19.348 87.931 13.512 29.993-5.837 57.021-21.924 76.452-45.501s30.060-53.176 30.060-83.732c0-30.551-10.629-60.155-30.060-83.732s-46.459-39.665-76.452-45.501c-29.988-5.832-61.076-1.060-87.931 13.512s-47.805 38.026-59.264 66.35h-618.461c-13.094 0-25.652 5.202-34.911 14.464-9.259 9.257-14.46 21.816-14.46 34.908z" />
<glyph unicode="&#xe93b;" glyph-name="profile1" horiz-adv-x="1075" d="M763.474 648.917c0-125.313-100.475-225.795-225.879-225.795-125.358 0-225.876 100.482-225.876 225.795s100.518 225.752 225.876 225.752c125.404 0 225.879-100.438 225.879-225.752zM537.595 21.335c-185.071 0-341.332 30.080-341.332 146.135 0 116.096 157.243 145.111 341.332 145.111 185.114 0 341.335-30.080 341.335-146.135 0-116.096-157.245-145.111-341.335-145.111z" />
<glyph unicode="&#xe93c;" d="M511.868 312.55c-184.022 0-341.206-29.015-341.206-145.065 0-116.096 156.203-146.135 341.206-146.135 184.022 0 341.206 28.969 341.206 145.065s-156.16 146.135-341.206 146.135z" />
<glyph unicode="&#xe93d;" d="M511.867 423.096c125.353 0 225.792 100.481 225.792 225.793s-100.439 225.792-225.792 225.792c-125.312 0-225.792-100.48-225.792-225.792s100.48-225.793 225.792-225.793z" />
<glyph unicode="&#xe93e;" glyph-name="post" horiz-adv-x="1075" d="M367.377 874.665h357.59c131.799 0 205.184-75.946 205.184-206.080v-440.745c0-132.27-73.385-206.51-205.184-206.51h-357.59c-129.707 0-205.227 74.24-205.227 206.51v440.745c0 130.134 75.52 206.080 205.227 206.080zM378.83 675.839v0.426h127.531c18.388 0 33.323-14.933 33.323-33.237 0-18.816-14.935-33.75-33.323-33.75h-127.531c-18.389 0-33.28 14.934-33.28 33.28s14.891 33.28 33.28 33.28zM378.83 416.44h334.509c18.345 0 33.28 14.93 33.28 33.277s-14.935 33.323-33.28 33.323h-334.509c-18.389 0-33.28-14.976-33.28-33.323s14.891-33.277 33.28-33.277zM378.87 221.44h334.505c17.024 1.705 29.87 16.256 29.87 33.28 0 17.49-12.846 32-29.87 33.705h-334.505c-12.8 1.28-25.173-4.695-32-15.785-6.826-10.67-6.826-24.75 0-35.84 6.827-10.67 19.2-17.070 32-15.36z" />
<glyph unicode="&#xe93f;" d="M802.514 575.1c-19.267 0-44.78 0.426-76.549 0.426-77.481 0-141.189 64.128-141.189 142.336v137.216c0 10.795-8.622 19.584-19.308 19.584h-225.682c-105.321 0-190.448-86.442-190.448-192.384v-459.732c0-111.145 89.183-201.216 199.235-201.216h336.074c104.94 0 190.024 85.888 190.024 191.913v342.657c0 10.838-8.576 19.584-19.308 19.542-18.038-0.128-39.67-0.342-52.849-0.342z" />
<glyph unicode="&#xe940;" d="M686.254 850.459c-12.759 13.269-35.031 4.138-35.031-14.251v-112.512c0-47.189 38.871-86.016 86.062-86.016 29.737-0.341 71.040-0.426 106.112-0.341 17.961 0.042 27.090 21.504 14.633 34.474-45.015 46.806-125.609 130.688-171.776 178.646z" />
<glyph unicode="&#xe941;" d="M382.894 474.119h144.425c17.536 0 31.79 14.208 31.79 31.744s-14.254 31.787-31.79 31.787h-144.425c-17.536 0-31.744-14.251-31.744-31.787s14.208-31.744 31.744-31.744zM382.898 261.033h232.275c17.536 0 31.79 14.208 31.79 31.744s-14.254 31.785-31.79 31.785h-232.275c-17.536 0-31.744-14.249-31.744-31.785s14.208-31.744 31.744-31.744z" />
<glyph unicode="&#xe942;" glyph-name="pen" d="M885.367 23.906h-309.461c-17.664 0-32 14.336-32 32s14.336 32 32 32h309.461c17.664 0 32-14.336 32-32s-14.336-32-32-32zM559.386 745.952l-401.705-502.402c-7.296-9.131-9.984-20.907-7.296-32.213l29.056-123.093 129.664 1.621c12.331 0.128 23.723 5.632 31.275 15.019 137.257 171.733 398.932 499.159 406.356 508.759 6.997 11.349 9.728 27.392 6.059 42.837-3.755 15.829-13.611 29.269-27.819 37.845-3.029 2.091-74.923 57.899-77.141 59.648-27.051 21.675-66.517 17.92-88.448-8.021zM154.182 23.902c-14.805 0-27.691 10.155-31.147 24.619l-34.944 148.096c-7.211 30.677-0.043 62.336 19.627 86.912l401.918 502.7c0.171 0.171 0.299 0.384 0.469 0.555 44.075 52.693 123.776 60.459 177.536 17.323 2.133-1.664 73.515-57.131 73.515-57.131 25.941-15.445 46.208-43.051 53.888-75.733 7.637-32.341 2.091-65.707-15.701-93.909-1.323-2.091-2.475-3.883-409.001-512.471-19.584-24.405-48.939-38.613-80.469-38.997l-155.691-1.963zM692.198 461.453c-6.827 0-13.653 2.176-19.499 6.613l-232.619 178.686c-13.994 10.752-16.639 30.805-5.888 44.885 10.795 13.995 30.848 16.597 44.885 5.845l232.661-178.643c13.995-10.752 16.64-30.848 5.845-44.885-6.272-8.192-15.787-12.501-25.387-12.501z" />
<glyph unicode="&#xe943;" glyph-name="oclock" horiz-adv-x="945" d="M472.615 54.154c-217.403 0-393.846 176.049-393.846 393.846 0 217.403 176.443 393.846 393.846 393.846 217.797 0 393.846-176.443 393.846-393.846 0-217.797-176.049-393.846-393.846-393.846zM598.252 301.883c4.726-2.757 9.846-4.332 15.36-4.332 9.846 0 19.692 5.12 25.206 14.572 8.271 13.785 3.938 31.902-10.24 40.566l-140.209 83.495v181.957c0 16.542-13.391 29.538-29.538 29.538s-29.538-12.997-29.538-29.538v-198.892c0-10.24 5.514-19.692 14.572-25.206l154.388-92.16z" />
<glyph unicode="&#xe944;" glyph-name="noti" d="M224.001 576c0 76.382 30.343 149.636 84.353 203.647s127.265 84.353 203.646 84.353c76.385 0 149.637-30.343 203.648-84.353s84.352-127.265 84.352-203.647v-32c0-90.582 34.135-173.097 90.368-235.52 3.502-3.881 6.001-8.566 7.276-13.635 1.275-5.074 1.29-10.378 0.041-15.457-1.254-5.074-3.727-9.769-7.214-13.665-3.482-3.901-7.869-6.886-12.774-8.699-65.874-24.32-134.825-42.24-206.121-53.033 1.603-21.939-1.331-43.971-8.622-64.722s-18.785-39.777-33.761-55.885c-14.971-16.113-33.106-28.964-53.274-37.75-20.163-8.786-41.923-13.322-63.918-13.322s-43.753 4.536-63.918 13.322-38.3 21.637-53.274 37.75c-14.975 16.108-26.467 35.133-33.759 55.885s-10.227 42.783-8.622 64.722c-70.329 10.655-139.393 28.442-206.122 53.074-4.901 1.812-9.285 4.792-12.768 8.689-3.483 3.891-5.96 8.581-7.214 13.65-1.254 5.074-1.248 10.373 0.019 15.442s3.755 9.748 7.247 13.635c58.317 64.568 90.542 148.514 90.411 235.52v32zM416.086 196.265c-0.546-12.933 1.531-25.846 6.105-37.96s11.551-23.173 20.512-32.522c8.96-9.344 19.719-16.783 31.628-21.862 11.909-5.084 24.723-7.7 37.669-7.7 12.948 0 25.764 2.616 37.673 7.7 11.909 5.079 22.666 12.518 31.626 21.862 8.96 9.349 15.939 20.408 20.511 32.522 4.577 12.114 6.651 25.027 6.108 37.96-63.816-5.745-128.018-5.745-191.832 0z" />
<glyph unicode="&#xe945;" glyph-name="modal" d="M263.877 306.243v327.52h-106.339c-28.177-0.084-55.175-11.315-75.1-31.239s-31.155-46.923-31.239-75.1v-433.861c0.084-28.175 11.315-55.173 31.239-75.1 19.924-19.922 46.923-31.155 75.1-31.237h433.863c28.175 0.082 55.173 11.315 75.1 31.237 19.922 19.927 31.15 46.925 31.237 75.1v106.337h-327.523c-28.177 0.087-55.176 11.315-75.1 31.242-19.924 19.922-31.155 46.92-31.239 75.1zM866.437 908.8h-433.861c-28.177-0.084-55.176-11.315-75.1-31.239s-31.155-46.923-31.239-75.1v-433.863c0.084-28.175 11.315-55.173 31.239-75.1 19.924-19.922 46.923-31.15 75.1-31.237h433.861c28.175 0.087 55.173 11.315 75.1 31.237 19.922 19.927 31.155 46.925 31.237 75.1v433.863c-0.082 28.177-11.315 55.175-31.237 75.1-19.927 19.924-46.925 31.155-75.1 31.239zM866.437 589.785c0-9.401-3.732-18.417-10.383-25.064-6.646-6.648-15.662-10.382-25.062-10.382s-18.417 3.735-25.062 10.382c-6.651 6.647-10.383 15.663-10.383 25.064v141.785h-141.788c-9.4 0-18.417 3.735-25.062 10.382s-10.383 15.664-10.383 25.064c0 9.401 3.738 18.417 10.383 25.064s15.662 10.382 25.062 10.382h141.788c18.801 0 36.833-7.469 50.13-20.764 13.292-13.295 20.762-31.327 20.762-50.128v-141.785z" />
<glyph unicode="&#xe946;" glyph-name="new" horiz-adv-x="1075" d="M406.436 260.695h229.806c17.321 0 31.688 14.505 31.688 32s-14.367 31.575-31.688 31.575h-229.806c-17.32 0-31.683-14.080-31.683-31.575s14.363-32 31.683-32zM549.222 537.602h-142.787c-17.32 0-31.683-14.506-31.683-32s14.363-31.574 31.683-31.574h142.787c17.321 0 31.683 14.080 31.683 31.574s-14.362 32-31.683 32zM850.693 574.909c9.933 0.115 20.746 0.239 30.566 0.239 10.563 0 19.011-8.533 19.011-19.2v-343.038c0-105.815-84.91-191.575-189.676-191.575h-336.264c-109.835 0-199.393 90.025-199.393 200.96v459.947c0 105.814 85.333 192.426 190.521 192.426h225.584c10.982 0 19.43-8.96 19.43-19.626v-137.386c0-78.080 63.79-142.080 141.097-142.507 18.058 0 33.976-0.135 47.908-0.253 10.839-0.092 20.475-0.174 28.979-0.174 6.011 0 13.809 0.090 22.236 0.187zM862.346 637.186c-34.729-0.128-75.663 0-105.103 0.298-46.725 0-85.207 38.87-85.207 86.059v112.469c0 18.39 22.093 27.52 34.724 14.251 22.886-24.038 54.354-57.091 85.663-89.982 31.155-32.729 62.162-65.297 84.413-88.664 12.334-12.928 3.292-34.39-14.49-34.432z" />
<glyph unicode="&#xe947;" glyph-name="mess" d="M722.762 832c57.214 0 112.254-22.613 152.744-63.189 40.536-40.491 63.19-95.104 63.19-152.278v-337.065c0-119.040-96.852-215.468-215.934-215.468h-421.505c-119.083 0-215.894 96.428-215.894 215.468v337.065c0 119.040 96.384 215.467 215.894 215.467h421.505zM790.644 552.96l3.412 3.413c10.198 12.374 10.198 30.294-0.47 42.667-5.93 6.357-14.080 10.24-22.57 11.093-8.96 0.47-17.492-2.56-23.934-8.533l-192.386-153.6c-24.744-20.522-60.202-20.522-85.332 0l-192.001 153.6c-13.269 9.813-31.616 8.533-42.666-2.987-11.52-11.52-12.8-29.866-3.030-42.666l5.59-5.547 194.133-151.468c23.893-18.772 52.864-29.012 83.202-29.012 30.25 0 59.732 10.24 83.582 29.012l192.47 154.028z" />
<glyph unicode="&#xe948;" d="M85.338 684.93c0 104.576 86.623 189.738 193.047 189.738h211.674c106.207 0 192.612-84.906 192.612-189.312v-474.285c0-104.617-86.625-189.737-193.090-189.737h-211.587c-106.25 0-192.656 84.905-192.656 189.312v474.283z" />
<glyph unicode="&#xe949;" d="M929.244 471.262l-121.421 124.117c-12.549 12.8-32.748 12.8-45.256-0.085-12.462-12.886-12.421-33.664 0.087-46.464l66.524-67.968h-421.77c-17.66 0-31.996-14.72-31.996-32.854 0-18.174 14.336-32.854 31.996-32.854h421.77l-66.524-67.968c-12.508-12.8-12.549-33.577-0.087-46.464 6.277-6.441 14.464-9.687 22.692-9.687 8.141 0 16.328 3.246 22.564 9.6l121.421 124.078c6.021 6.185 9.431 14.546 9.431 23.294 0 8.704-3.41 17.066-9.431 23.254z" />
<glyph unicode="&#xe94a;" d="M685.889 874.671h144.468c59.83 0 108.311-48.89 108.311-109.225v-145.688c0-60.335-48.482-109.225-108.311-109.225h-144.468c-59.83 0-108.311 48.889-108.311 109.225v145.688c0 60.335 48.482 109.225 108.311 109.225z" />
<glyph unicode="&#xe94b;" d="M193.645 874.671h144.468c59.83 0 108.31-48.89 108.31-109.225v-145.688c0-60.335-48.48-109.225-108.31-109.225h-144.468c-59.83 0-108.31 48.889-108.31 109.225v145.688c0 60.335 48.48 109.225 108.31 109.225zM193.645 385.475h144.468c59.83 0 108.31-48.891 108.31-109.224v-145.692c0-60.29-48.48-109.224-108.31-109.224h-144.468c-59.83 0-108.31 48.933-108.31 109.224v145.692c0 60.332 48.48 109.224 108.31 109.224zM830.357 385.475h-144.468c-59.83 0-108.311-48.891-108.311-109.224v-145.692c0-60.29 48.482-109.224 108.311-109.224h144.468c59.83 0 108.311 48.933 108.311 109.224v145.692c0 60.332-48.482 109.224-108.311 109.224z" />
<glyph unicode="&#xe94c;" glyph-name="menubar" d="M480 320.005c0 25.472-10.112 49.889-28.128 67.871-8.908 8.919-19.489 15.995-31.135 20.823s-24.131 7.311-36.738 7.306h-224c-25.472 0-49.888-10.112-67.872-28.129-8.921-8.909-15.997-19.487-20.824-31.135s-7.309-24.131-7.305-36.736v-224c0-25.472 10.112-49.889 28.128-67.871 8.908-8.924 19.488-16 31.134-20.828 11.646-4.823 24.131-7.306 36.738-7.301h224c25.472 0 49.888 10.112 67.872 28.129 8.921 8.904 15.996 19.487 20.823 31.135 4.827 11.643 7.309 24.125 7.305 36.736v224zM960 320.005c0 25.472-10.112 49.889-28.129 67.871-8.909 8.919-19.487 15.995-31.135 20.823-11.643 4.828-24.131 7.311-36.736 7.306h-224c-25.472 0-49.889-10.112-67.871-28.129-8.924-8.909-16-19.487-20.823-31.135-4.828-11.648-7.311-24.131-7.306-36.736v-224c0-25.472 10.112-49.889 28.129-67.871 8.909-8.924 19.487-16 31.135-20.828 11.643-4.823 24.131-7.306 36.736-7.301h224c25.472 0 49.889 10.112 67.871 28.129 8.924 8.904 16 19.487 20.823 31.135 4.828 11.643 7.311 24.125 7.306 36.736v224zM819.871 486.628l133.504 133.504c17.997 18.003 28.109 42.417 28.109 67.872s-10.112 49.869-28.109 67.872l-133.504 133.504c-18.002 17.997-42.414 28.108-67.871 28.108s-49.869-10.11-67.871-28.108l-133.504-133.504c-17.997-18.002-28.109-42.416-28.109-67.872s10.112-49.869 28.109-67.872l133.504-133.504c18.002-17.997 42.414-28.107 67.871-28.107s49.869 10.11 67.871 28.107zM480 800.004c0 25.472-10.112 49.888-28.128 67.872-8.908 8.921-19.489 15.997-31.135 20.824s-24.131 7.309-36.738 7.305h-224c-25.472 0-49.888-10.112-67.872-28.128-8.921-8.908-15.997-19.488-20.824-31.135s-7.309-24.13-7.305-36.737v-224c0-25.472 10.112-49.888 28.128-67.872 8.908-8.921 19.488-15.997 31.134-20.824s24.131-7.309 36.738-7.304h224c25.472 0 49.888 10.112 67.872 28.128 8.921 8.908 15.996 19.488 20.823 31.135s7.309 24.131 7.305 36.738v224z" />
<glyph unicode="&#xe94d;" glyph-name="lock" d="M747.636 644.441c0 127.198-105.356 230.23-236.288 230.23-129.198 0-234.55-103.031-234.984-230.23v-65.422c-73.444-22.938-127.031-89.463-127.031-168.92v-210.641c0-98.365 81.551-178.12 182.136-178.12h361.104c100.543 0 182.095 79.756 182.095 178.12v210.641c0 79.458-53.546 145.982-127.032 168.92v65.422zM512.219 800.471c88.008 0 159.544-69.959 159.544-156.030v-56.222h-319.527v57.070c0.433 85.647 71.97 155.182 159.983 155.182zM549.935 257.927c0-20.778-16.905-37.311-38.153-37.311-20.81 0-37.716 16.533-37.716 37.311v94.129c0 20.35 16.905 36.887 37.716 36.887 21.248 0 38.153-16.538 38.153-36.887v-94.129z" />
<glyph unicode="&#xe94e;" glyph-name="location" d="M492.373 6.355c-16.702 9.894-33 20.454-48.853 31.661-40.991 28.954-79.29 61.536-114.432 97.363-82.901 84.909-169.088 212.525-169.088 376.621 0 93.356 37.085 182.889 103.098 248.902s155.546 103.098 248.902 103.098c93.356 0 182.886-37.085 248.902-103.098 66.010-66.013 103.098-155.546 103.098-248.902 0-164.139-86.144-291.712-169.088-376.621-35.155-35.827-73.469-68.416-114.475-97.363-15.839-11.2-32.123-21.766-48.81-31.661l-3.030-1.747-1.194-0.64c-4.738-2.56-10.038-3.904-15.424-3.904s-10.687 1.344-15.424 3.904l-4.182 2.387zM512 384c33.948 0 66.505 13.485 90.509 37.491s37.491 56.562 37.491 90.509c0 33.948-13.485 66.505-37.491 90.509s-56.562 37.491-90.509 37.491c-33.948 0-66.505-13.485-90.509-37.491s-37.491-56.562-37.491-90.509c0-33.948 13.485-66.505 37.491-90.509s56.562-37.491 90.509-37.491z" />
<glyph unicode="&#xe94f;" glyph-name="loca" horiz-adv-x="945" d="M137.846 514.254c0 181.164 151.39 327.592 334.511 327.592 183.638 0 335.028-146.428 335.028-327.592 0-91.291-33.201-176.044-87.847-247.88-60.286-79.239-134.591-148.276-218.229-202.469-19.142-12.524-36.417-13.47-57.427 0-84.114 54.193-158.419 123.23-218.188 202.469-54.686 71.836-87.847 156.589-87.847 247.88zM362.111 504.054c0-60.689 49.524-108.422 110.246-108.422 60.763 0 110.763 47.733 110.763 108.422 0 60.218-50 110.274-110.763 110.274-60.722 0-110.246-50.056-110.246-110.274z" />
<glyph unicode="&#xe950;" glyph-name="listgroup" d="M887.992 793.1h-520.621c-46.764 0-84.811-38.047-84.811-84.868 0-46.765 38.047-84.811 84.811-84.811h520.621c46.761 0 84.808 38.047 84.808 84.811 0.005 46.823-38.042 84.868-84.808 84.868zM136.041 793.1c-46.78 0-84.841-38.059-84.841-84.839s38.061-84.84 84.841-84.84c46.78 0 84.84 38.060 84.84 84.84s-38.060 84.839-84.84 84.839zM136.041 532.819c-46.78 0-84.841-38.060-84.841-84.839 0-46.781 38.061-84.838 84.841-84.838s84.84 38.057 84.84 84.838c0 46.78-38.060 84.839-84.84 84.839zM136.041 272.538c-46.78 0-84.841-38.057-84.841-84.838s38.061-84.838 84.841-84.838c46.78 0 84.84 38.057 84.84 84.838s-38.060 84.838-84.84 84.838zM887.992 532.819h-520.621c-46.764 0-84.811-38.047-84.811-84.87 0-46.761 38.047-84.808 84.811-84.808h520.621c46.761 0 84.808 38.047 84.808 84.808 0.005 46.825-38.042 84.87-84.808 84.87zM887.992 272.538h-520.621c-46.764 0-84.811-38.047-84.811-84.869 0-46.761 38.047-84.808 84.811-84.808h520.621c46.761 0 84.808 38.047 84.808 84.808 0.005 46.822-38.042 84.869-84.808 84.869z" />
<glyph unicode="&#xe951;" glyph-name="like" d="M319.702 160c-18.133 0-34.987 10.069-41.6 26.965-14.646 37.279-22.143 76.982-22.101 117.038 0 74.661 25.557 143.272 68.352 197.714 6.443 8.192 15.915 13.184 25.6 16.939 20.181 7.808 37.973 21.931 51.712 39.424 33.121 42.255 74.697 77.132 122.069 102.4 30.848 16.384 57.602 40.789 70.527 73.173 9.079 22.688 13.744 46.901 13.739 71.339v27.008c0 8.487 3.374 16.626 9.375 22.628 5.996 6.001 14.137 9.372 22.625 9.372 25.463 0 49.88-10.114 67.886-28.118 18-18.003 28.114-42.421 28.114-67.882 0-49.152-11.093-95.701-30.845-137.301-11.349-23.808 4.562-54.699 30.93-54.699h133.376c43.776 0 82.99-29.611 87.637-73.173 1.923-18.005 2.901-36.267 2.901-54.827 0.176-116.753-39.72-230.025-113.021-320.893-16.555-20.565-42.115-31.107-68.483-31.107h-171.349c-20.605 0-41.13 3.328-60.714 9.813l-132.864 44.373c-19.58 6.514-40.080 9.825-60.715 9.813h-33.152zM99.457 491.648c-23.513-59.763-35.542-123.423-35.456-187.645-0.054-50.705 7.423-101.131 22.187-149.635 11.093-36.267 46.251-58.368 84.181-58.368h38.699c18.987 0 30.72 21.248 22.315 38.315-26.021 52.776-39.512 110.842-39.424 169.688 0 72.875 20.309 141.010 55.552 199.080 10.453 17.195-1.195 40.917-21.333 40.917h-44.843c-35.499 0-68.821-19.328-81.877-52.352z" />
<glyph unicode="&#xe952;" glyph-name="light" d="M982.593 328.927c-4.282 4.273-9.686 7.242-15.588 8.569-5.902 1.322-12.060 0.95-17.757-1.080-76.563-27.299-159.302-32.312-238.601-14.457-79.304 17.855-151.91 57.847-209.385 115.326s-97.462 130.088-115.314 209.389-12.834 162.041 14.469 238.604c2.029 5.698 2.401 11.855 1.073 17.756s-4.301 11.306-8.575 15.586c-4.274 4.281-9.673 7.262-15.572 8.599s-12.057 0.974-17.758-1.045c-69.027-24.375-131.669-64.004-183.264-115.936-92.492-92.562-144.437-218.068-144.412-348.922s52.017-256.34 144.544-348.867c92.527-92.528 218.014-144.519 348.868-144.542s256.358 51.921 348.919 144.412c51.935 51.605 91.564 114.255 115.935 183.296 2.015 5.702 2.369 11.855 1.029 17.752-1.345 5.897-4.329 11.292-8.611 15.56z" />
<glyph unicode="&#xe953;" glyph-name="language" d="M300.888 662.2h-11.556l-21.595-108h54.745l-21.595 108zM737.684 446.198c11.658-31.314 27.167-56.668 44.324-78.239 17.162 21.571 34.468 46.925 46.126 78.239h-90.45zM891.776 745h-335.309l69.914-561.023c1.239-22.948-5.038-44.549-20.014-61.46l-118.398-135.316h403.807c44.667 0 80.998 36.337 80.998 80.998v594.001c0 44.665-36.332 82.8-80.998 82.8zM891.776 446.198h-7.209c-15.365-49.285-39.726-87.854-65.050-118.262 19.835-18.135 41.047-33.009 62.131-49.669 11.628-9.308 13.527-26.286 4.193-37.944-9.293-11.633-26.337-13.522-37.939-4.188-22.912 18.084-44.421 33.219-65.925 52.956-21.509-19.738-41.216-34.872-64.128-52.956-11.602-9.334-28.652-7.444-37.939 4.188-9.339 11.658-7.439 28.636 4.188 37.944 21.089 16.66 40.499 31.534 60.334 49.669-25.318 30.403-47.887 68.972-63.247 118.262h-7.209c-14.925 0-27.003 12.079-27.003 27.002s12.078 27 27.003 27h80.998v27c0 14.924 12.078 27 27.003 27 14.92 0 26.998-12.076 26.998-27v-27h82.801c14.925 0 26.998-12.076 26.998-27s-12.073-27.002-26.998-27.002zM490.695 837.846c-5.037 40.447-39.604 70.954-80.367 70.954h-278.129c-44.665 0-81-36.335-81-81v-597.6c0-44.667 36.335-80.998 81-80.998h425.793c7.875 9.001 14.479 14.638 14.756 26.394 0.072 2.944-81.688 659.327-82.054 662.25zM382.299 392.73c-14.317-2.949-28.82 6.349-31.772 21.171l-17.256 86.299h-76.34l-17.256-86.299c-2.9-14.607-16.981-24.202-31.772-21.171-14.607 2.924-24.1 17.137-21.174 31.77l53.999 270c2.531 12.603 13.606 21.701 26.472 21.701h55.8c12.867 0 23.942-9.097 26.473-21.701l54-270c2.927-14.633-6.564-28.846-21.173-31.77zM366.67 95.201l4.633-37.048c3.089-24.806 19.573-50.109 46.688-62.74l90.647 99.789h-141.968z" />
<glyph unicode="&#xe954;" glyph-name="img-2" horiz-adv-x="1075" d="M344.107 21.34h369.775c144.655 0 241.802 101.468 241.802 252.447v348.441c0 150.981-97.147 252.447-241.756 252.447h-369.821c-144.609 0-241.757-101.466-241.757-252.447v-348.441c0-150.979 97.148-252.447 241.757-252.447zM379.668 490.675c-58.822 0-106.618 47.86-106.618 106.666s47.796 106.666 106.618 106.666c58.779 0 106.618-47.86 106.618-106.666s-47.839-106.666-106.618-106.666zM862.705 322.826c14.285-36.634 6.866-80.666-8.407-116.946-18.109-43.151-52.777-75.822-96.451-90.092-19.395-6.339-39.731-9.114-60.027-9.114h-359.581c-35.783 0-67.446 8.586-93.404 24.571-16.261 10.040-19.135 33.198-7.079 48.215 20.165 25.098 40.073 50.284 60.152 75.689 38.27 48.609 64.056 62.7 92.717 50.33 11.627-5.11 23.297-12.769 35.311-20.874 32.007-21.75 76.499-51.645 135.109-19.195 40.105 22.461 63.365 60.995 83.625 94.546l0.338 0.563c1.434 2.35 2.857 4.705 4.275 7.055 6.81 11.264 13.527 22.374 21.125 32.614 9.523 12.815 44.836 52.882 90.573 24.351 29.128-17.966 53.627-42.271 79.841-68.296 9.999-9.948 17.121-21.263 21.883-33.418z" />
<glyph unicode="&#xe955;" glyph-name="input" d="M972.8 672.493v106.338c-0.026 34.462-13.727 67.506-38.093 91.874-24.371 24.369-57.416 38.070-91.878 38.095h-661.66c-34.462-0.025-67.506-13.726-91.874-38.095s-38.070-57.412-38.095-91.874v-106.338h921.6zM370.215 814.277h47.262c9.401 0 18.417-3.735 25.064-10.382s10.382-15.663 10.382-25.064c0-9.401-3.735-18.417-10.382-25.064s-15.663-10.382-25.064-10.382h-47.262c-9.401 0-18.417 3.735-25.064 10.382s-10.382 15.664-10.382 25.064c0 9.401 3.735 18.417 10.382 25.064s15.664 10.382 25.064 10.382zM181.169 814.277h47.262c9.401 0 18.417-3.735 25.064-10.382s10.382-15.663 10.382-25.064c0-9.401-3.735-18.417-10.382-25.064s-15.663-10.382-25.064-10.382h-47.262c-9.401 0-18.417 3.735-25.064 10.382s-10.382 15.664-10.382 25.064c0 9.401 3.735 18.417 10.382 25.064s15.663 10.382 25.064 10.382zM760.125 400.737v-47.263c0-3.133-1.249-6.139-3.461-8.351-2.217-2.217-5.222-3.461-8.356-3.461h-472.616c-3.134 0-6.139 1.244-8.355 3.461-2.216 2.212-3.461 5.217-3.461 8.351v47.263c0 3.133 1.245 6.139 3.461 8.356s5.221 3.461 8.355 3.461h472.616c3.133 0 6.139-1.244 8.356-3.461 2.212-2.217 3.461-5.222 3.461-8.356zM51.2 601.6v-484.429c0.025-34.463 13.726-67.507 38.095-91.878 24.369-24.366 57.412-38.067 91.874-38.093h661.66c34.463 0.026 67.507 13.727 91.878 38.093 24.366 24.371 38.067 57.416 38.093 91.878v484.429h-921.6zM795.571 128.983h-189.046c-9.405 0-18.417 3.738-25.068 10.383-6.646 6.646-10.383 15.662-10.383 25.062 0 9.405 3.738 18.417 10.383 25.068 6.651 6.646 15.662 10.378 25.068 10.378h189.046c9.4 0 18.417-3.732 25.062-10.378 6.646-6.651 10.383-15.662 10.383-25.068 0-9.4-3.738-18.417-10.383-25.062s-15.662-10.383-25.062-10.383zM831.017 353.475c0-45.604-37.1-82.703-82.708-82.703h-472.616c-45.607 0-82.708 37.1-82.708 82.703v47.263c0 45.609 37.101 82.709 82.708 82.709h472.616c45.609 0 82.708-37.1 82.708-82.709v-47.263z" />
<glyph unicode="&#xe956;" glyph-name="hide" d="M418.271 309.217c26.644-18.058 59.117-28.979 93.671-28.979 91.589 0 166.11 75.187 166.11 167.598 0 34.867-10.824 67.631-28.728 94.515l-45.379-45.787c7.496-14.282 11.658-31.084 11.658-48.729 0-57.544-46.628-104.591-103.662-104.591-17.485 0-34.138 4.198-48.292 11.761l-45.379-45.788zM786.294 680.55c60.365-55.448 111.57-130.217 149.873-220.11 3.333-7.981 3.333-17.222 0-24.784-89.093-209.188-247.706-334.367-424.225-334.367h-0.416c-80.349 0-157.367 26.465-225.226 74.772l-80.765-81.49c-6.244-6.303-14.155-9.242-22.065-9.242s-16.236 2.939-22.065 9.242c-10.408 10.501-12.073 27.305-3.747 39.485l1.249 1.679 615.729 621.264c0.835 0.84 1.664 1.68 2.084 2.521 0.829 0.84 1.664 1.68 2.079 2.52l39.137 39.485c12.488 12.182 32.056 12.182 44.129 0 12.488-12.182 12.488-32.345 0-44.526l-75.771-76.45zM345.528 447.672c0-10.921 1.249-21.842 2.914-31.923l-154.036-155.418c-41.632 48.722-77.851 107.53-106.577 175.16-3.331 7.562-3.331 16.803 0 24.784 89.092 209.188 247.708 333.945 423.809 333.945h0.418c59.53 0 117.396-14.282 170.685-41.166l-139.049-140.299c-9.989 1.68-20.813 2.94-31.636 2.94-92.008 0-166.528-75.19-166.528-168.025z" />
<glyph unicode="&#xe957;" glyph-name="home1" horiz-adv-x="1075" d="M415.346 73.672v130.463c0 33.306 27.195 60.303 60.743 60.303h122.634c16.108 0 31.56-6.354 42.952-17.664 11.387-11.305 17.787-26.644 17.787-42.639v-130.463c-0.097-13.844 5.371-27.156 15.196-36.982 9.825-9.83 23.199-15.355 37.146-15.355h83.661c39.076-0.102 76.585 15.237 104.253 42.634 27.663 27.392 43.213 64.589 43.213 103.378v371.669c0 31.334-13.993 61.057-38.205 81.16l-284.611 225.655c-49.51 39.565-120.444 38.288-168.475-3.034l-278.117-222.621c-25.356-19.511-40.51-49.321-41.26-81.16v-371.29c0-80.85 66.022-146.391 147.464-146.391h81.754c28.968 0 52.51 23.204 52.72 51.958l1.146 0.379z" />
<glyph unicode="&#xe958;" glyph-name="img" horiz-adv-x="1067" d="M331.242 815.125c-109.952 0-180.992-75.392-180.992-191.701v-350.464c0-32.64 6.059-61.781 16.427-86.997 0.448 0.533 10.212 12.433 22.95 27.955 24.895 30.34 61.148 74.517 61.402 74.743 29.525 33.707 84.949 83.968 157.696 53.547 15.941-6.609 30.111-15.663 43.154-24 1.271-0.811 2.53-1.617 3.78-2.411 24.448-16.341 38.827-24.021 53.76-22.741 6.187 0.853 11.989 2.688 17.493 6.101 20.762 12.8 74.59 89.071 90.709 111.91 2.364 3.349 3.917 5.551 4.437 6.234 46.507 60.587 118.187 76.8 177.92 40.96 8.021-4.779 65.493-44.928 84.523-61.056v226.218c0 116.309-71.040 191.701-181.376 191.701h-371.884zM703.104 874.646c144.085 0 240.896-100.779 240.896-251.221v-350.464c0-3.785-0.397-7.33-0.794-10.876-0.282-2.496-0.559-4.983-0.7-7.556-0.090-1.553-0.137-3.106-0.179-4.663-0.060-2.069-0.119-4.143-0.29-6.217-0.085-0.811-0.247-1.587-0.405-2.368-0.158-0.777-0.32-1.557-0.405-2.368-1.408-13.397-3.584-26.197-6.613-38.613-0.717-3.102-1.545-6.093-2.377-9.114l-0.183-0.657c-3.413-12.032-7.424-23.509-12.245-34.475-0.845-1.843-1.737-3.639-2.628-5.436-0.593-1.199-1.186-2.398-1.766-3.61-5.205-10.453-10.837-20.48-17.365-29.781-1.207-1.719-2.492-3.337-3.78-4.949-0.849-1.071-1.702-2.138-2.534-3.243-6.784-8.789-13.867-17.195-21.888-24.832-1.6-1.523-3.332-2.914-5.065-4.309-1.079-0.87-2.163-1.741-3.213-2.645-8.235-7.083-16.64-13.867-25.899-19.669-2.022-1.267-4.169-2.334-6.306-3.396-1.382-0.687-2.765-1.37-4.105-2.108-9.429-5.205-18.944-10.283-29.312-14.208-2.496-0.947-5.15-1.634-7.812-2.321-1.89-0.486-3.785-0.977-5.628-1.562-0.922-0.286-1.847-0.572-2.769-0.858-9.259-2.884-18.492-5.756-28.463-7.462-5.777-1.011-11.908-1.399-18.044-1.792-2.658-0.166-5.312-0.337-7.94-0.555-2.825-0.209-5.598-0.55-8.371-0.892-4.51-0.555-9.033-1.114-13.815-1.114h-371.883c-16.043 0-31.36 1.621-46.165 4.053-0.555 0.085-1.067 0.171-1.579 0.256-57.728 9.941-105.643 37.803-139.221 79.829-0.233 0-0.325 0.158-0.447 0.367-0.079 0.137-0.171 0.294-0.321 0.444-33.749 42.496-52.821 99.627-52.821 166.699v350.464c0 150.443 96.896 251.221 240.555 251.221h371.883zM474.667 596.695c0-57.811-48.372-106.028-106.46-106.028-51.059 0-94.594 37.303-104.351 85.605-1.612 7.247-2.522 14.7-2.522 22.4 0 58.223 47.297 105.329 105.757 105.329 29.768 0 56.724-12.518 76.033-32.488 19.388-19.27 31.543-45.829 31.543-74.817z" />
<glyph unicode="&#xe959;" glyph-name="heart2" d="M676.259 853.303c26.922 0 53.802-3.797 79.36-12.373 157.482-51.2 214.23-224 166.824-375.042-26.88-77.182-70.824-147.624-128.382-205.182-82.39-79.788-172.8-150.612-270.122-211.628l-10.668-6.442-11.092 6.87c-97.665 60.588-188.588 131.412-271.745 211.628-57.174 57.553-101.163 127.572-128.469 204.753-48.214 151.042 8.533 323.842 167.722 375.938 12.374 4.266 25.131 7.253 37.931 8.917h5.12c11.989 1.749 23.893 2.56 35.84 2.56h4.693c26.88-0.811 52.907-5.504 78.123-14.080h2.517c1.707-0.811 2.987-1.707 3.84-2.517 9.429-3.030 18.347-6.443 26.88-11.136l16.211-7.254c3.919-2.089 8.318-5.282 12.116-8.041 2.411-1.748 4.58-3.322 6.232-4.332 0.698-0.411 1.406-0.824 2.118-1.24 3.658-2.136 7.471-4.36 10.682-6.824 47.402 36.224 104.96 55.851 164.268 55.424zM789.751 546.103c17.492 0.469 32.428 14.507 33.708 32.469v5.078c1.28 59.776-34.946 113.92-90.028 134.826-17.492 6.016-36.692-3.413-43.092-21.333-5.976-17.92 3.412-37.547 21.332-43.904 27.35-10.24 45.652-37.163 45.652-66.987v-1.322c-0.81-9.771 2.136-19.2 8.108-26.454s14.932-11.477 24.32-12.373z" />
<glyph unicode="&#xe95a;" glyph-name="heart" horiz-adv-x="1075" d="M530.985 67.835l-0.297 0.128-0.942 0.512c-5.489 3.026-10.936 6.124-16.338 9.303-64.949 38.595-125.644 83.927-181.080 135.255-98.176 91.602-202.197 227.538-202.197 394.964 0 124.928 105.13 224 232.021 224 35.275 0.173 70.135-7.609 101.987-22.767s59.877-37.302 81.99-64.785c22.118 27.489 50.15 49.636 82.012 64.794s66.729 22.937 102.011 22.758c126.848 0 231.977-99.072 231.977-224 0-167.467-104.018-303.403-202.194-394.923-55.439-51.328-116.132-96.66-181.079-135.255-5.402-3.19-10.849-6.308-16.343-9.344l-0.937-0.512-0.297-0.169-0.128-0.041c-4.628-2.452-9.784-3.732-15.022-3.732-5.233 0-10.388 1.28-15.017 3.732l-0.128 0.082z" />
<glyph unicode="&#xe95b;" d="M720.404 741.763h-125.573c-31.283-0.207-60.984 13.708-80.804 37.86l-41.353 57.168c-19.492 24.363-49.191 38.343-80.426 37.859h-88.773c-159.335 0-218.137-93.514-218.137-252.525v-171.884c-0.199-18.903 853.148-18.877 853.204 0v49.975c0.758 159.011-56.53 241.546-218.138 241.546z" />
<glyph unicode="&#xe95c;" d="M888.842 680.807c13.65-15.961 24.197-34.32 31.109-54.139 13.594-40.733 19.886-83.538 18.586-126.452v-224.13c-0.051-18.877-1.449-37.729-4.173-56.412-5.187-32.968-16.783-64.609-34.14-93.133-7.977-13.778-17.664-26.501-28.831-37.862-50.555-46.392-117.683-70.543-186.271-67.011h-346.745c-68.699-3.507-135.936 20.634-186.65 67.011-11.034 11.382-20.593 24.105-28.452 37.862-17.254 28.503-28.606 60.175-33.385 93.133-3.038 18.652-4.56 37.519-4.552 56.412v224.13c-0.008 18.719 1.006 37.424 3.035 56.033 0.426 3.265 1.066 6.476 1.7 9.655 1.056 5.299 2.094 10.505 2.094 15.711 3.851 22.456 10.876 44.254 20.866 64.74 29.591 63.226 90.29 95.407 189.685 95.407h417.304c55.675 4.305 110.93-12.454 154.783-46.946 5.053-4.283 9.748-8.968 14.039-14.008zM297.405 296.909h430.203c9.426-0.41 18.621 2.964 25.533 9.364 6.912 6.405 10.972 15.304 11.269 24.709 0.532 8.269-2.191 16.42-7.588 22.717-6.211 8.458-16.051 13.512-26.557 13.629h-432.861c-19.485 0-35.281-15.764-35.281-35.21s15.796-35.21 35.281-35.21z" />
<glyph unicode="&#xe95d;" glyph-name="follow" d="M405.331 424.381c117.528 0 211.741 95.429 211.741 214.477s-94.213 214.479-211.741 214.479c-117.529 0-211.739-95.43-211.739-214.479s94.211-214.477 211.739-214.477zM405.331 319.355c-172.62 0-320-27.597-320-137.866 0-110.223 146.483-138.819 320-138.819 172.578 0 319.998 27.602 319.998 137.866 0 110.269-146.483 138.819-319.998 138.819zM848.978 550.922h51.328c21.13 0 38.359-17.47 38.359-38.896s-17.229-38.896-38.359-38.896h-51.328v-50.229c0-21.427-17.183-38.897-38.359-38.897-21.125 0-38.354 17.469-38.354 38.897v50.229h-51.246c-21.171 0-38.354 17.469-38.354 38.896s17.183 38.896 38.354 38.896h51.246v50.186c0 21.426 17.229 38.896 38.354 38.896 21.176 0 38.359-17.469 38.359-38.896v-50.186z" />
<glyph unicode="&#xe95e;" glyph-name="follower" d="M689.422 608.732c0-100.253-79.923-180.64-179.596-180.64s-179.597 80.386-179.597 180.64c0 100.291 79.923 180.601 179.597 180.601 99.672 0 179.596-80.31 179.596-180.601zM509.826 106.668c-146.397 0-271.4 23.208-271.4 116.047 0 92.872 124.2 116.927 271.4 116.927 146.395 0 271.402-23.208 271.402-116.084 0-92.835-124.202-116.89-271.402-116.89zM766.171 605.474c0-51.106-15.244-98.716-41.989-138.297-2.751-4.073-0.303-9.565 4.547-10.412 6.689-1.15 13.601-1.806 20.629-1.997 70.107-1.843 133.027 43.536 150.412 111.857 25.749 101.483-49.855 192.591-146.129 192.591-10.468 0-20.48-1.114-30.222-3.112-1.336-0.307-2.751-0.922-3.514-2.113-0.917-1.46-0.228-3.42 0.689-4.688 28.919-40.77 45.577-90.493 45.577-143.828zM882.274 383.465c47.104-9.263 78.085-28.165 90.922-55.64 10.85-22.556 10.85-48.724 0-71.242-19.638-42.612-82.939-56.292-107.543-59.83-5.083-0.768-9.169 3.649-8.634 8.76 12.572 118.086-87.408 174.071-113.273 186.945-1.108 0.577-1.336 1.457-1.224 1.997 0.079 0.386 0.535 1.001 1.378 1.112 55.966 1.038 116.14-6.647 138.375-12.102zM274.651 454.772c7.030 0.191 13.906 0.805 20.63 1.997 4.852 0.847 7.297 6.339 4.546 10.412-26.743 39.58-41.986 87.19-41.986 138.296 0 53.336 16.657 103.059 45.577 143.828 0.916 1.268 1.566 3.228 0.687 4.688-0.764 1.153-2.216 1.806-3.515 2.114-9.78 1.998-19.79 3.112-30.258 3.112-96.274 0-171.879-91.108-146.091-192.591 17.383-68.321 80.304-113.704 150.408-111.857zM281.47 394.477c0.115-0.577-0.115-1.424-1.184-2.039-25.902-12.87-125.882-68.859-113.313-186.903 0.535-5.148-3.515-9.528-8.596-8.797-24.603 3.533-87.907 17.213-107.544 59.83-10.888 22.556-10.888 48.687 0 71.242 12.836 27.471 43.782 46.378 90.887 55.678 22.273 5.418 82.405 13.103 138.413 12.065 0.84-0.116 1.26-0.731 1.337-1.075z" />
<glyph unicode="&#xe95f;" glyph-name="gallery" d="M266.669 127.995c-33.409 0.061-65.956 10.593-93.066 30.121-27.109 19.523-47.415 47.058-58.060 78.725l-1.494 4.905c-4.779 14.956-7.268 30.551-7.382 46.249v290.903l-103.509-345.512c-6.335-24.586-2.768-50.678 9.935-72.658 12.703-21.985 33.526-38.103 57.991-44.892l659.754-176.681c8.233-2.135 16.471-3.159 24.576-3.159 42.496 0 81.321 28.206 92.201 69.76l38.446 122.24h-619.394zM384.002 575.996c47.062 0 85.334 38.272 85.334 85.334s-38.272 85.333-85.334 85.333c-47.061 0-85.333-38.272-85.333-85.333s38.272-85.334 85.333-85.334zM917.335 874.662h-639.999c-28.279-0.034-55.391-11.283-75.387-31.279s-31.245-47.108-31.28-75.387v-469.331c0-58.798 47.872-106.67 106.667-106.67h639.999c58.793 0 106.665 47.872 106.665 106.67v469.331c0 58.794-47.872 106.666-106.665 106.666zM277.336 789.329h639.999c5.658 0 11.085-2.248 15.084-6.248 4.004-4.001 6.252-9.427 6.252-15.085v-302.891l-134.784 157.27c-7.127 8.186-15.918 14.76-25.784 19.285-9.861 4.525-20.577 6.896-31.432 6.955-10.89-0.056-21.637-2.495-31.483-7.146-9.851-4.651-18.56-11.401-25.523-19.776l-158.464-190.209-51.624 51.5c-14.040 14.018-33.068 21.891-52.907 21.891s-38.867-7.873-52.906-21.891l-117.76-117.716v402.73c0 5.658 2.248 11.084 6.248 15.085s9.427 6.248 15.085 6.248z" />
<glyph unicode="&#xe960;" glyph-name="filter" d="M176.136 874.671h671.726c50.171 0 90.806-41.858 90.806-93.536v-65.344c0-25.069-9.798-49.144-27.192-66.701l-277.551-280.746c-4.785-4.887-11.287-7.601-18.008-7.554l-232.389 0.721c-7.073 0-13.794 3.035-18.626 8.327l-255.056 280.519c-15.771 17.332-24.513 40.229-24.513 63.987v66.747c0 51.678 40.635 93.581 90.803 93.581zM395.951 284.84l207.129-0.633c12.916-0.047 23.37-10.859 23.37-24.12v-116.522c0-13.307-7.554-25.344-19.33-30.911l-188.018-88.283c-4.393-2.039-9.049-3.035-13.706-3.035-6.194 0-12.388 1.811-17.792 5.385-9.445 6.246-15.156 17.017-15.156 28.556v205.442c0 13.349 10.543 24.166 23.502 24.12z" />
<glyph unicode="&#xe961;" glyph-name="filter2" d="M378.784 687.848c0-79.645-65.659-144.199-146.725-144.199-81.019 0-146.725 64.554-146.725 144.199 0 79.598 65.706 144.152 146.725 144.152 81.066 0 146.725-64.554 146.725-144.152zM874.384 751.005c35.458 0 64.284-28.318 64.284-63.157 0-34.885-28.826-63.204-64.284-63.204h-280.557c-35.51 0-64.33 28.318-64.33 63.204 0 34.838 28.821 63.157 64.33 63.157h280.557zM149.665 279.128h280.556c35.509 0 64.33-28.318 64.33-63.204 0-34.839-28.821-63.204-64.33-63.204h-280.556c-35.508 0-64.331 28.365-64.331 63.204 0 34.886 28.823 63.204 64.331 63.204zM791.943 73.481c81.064 0 146.725 64.554 146.725 144.151 0 79.644-65.662 144.198-146.725 144.198-81.022 0-146.725-64.554-146.725-144.198 0-79.597 65.704-144.151 146.725-144.151z" />
<glyph unicode="&#xe962;" glyph-name="dropdown" d="M512 908.8c-254.078 0-460.8-206.722-460.8-460.8 0-254.080 206.722-460.8 460.8-460.8 254.080 0 460.8 206.72 460.8 460.8 0 254.078-206.72 460.8-460.8 460.8zM726.093 470.213l-172.314-172.316c-11.484-11.53-26.609-17.249-41.779-17.249s-30.295 5.719-41.779 17.249l-172.316 172.316c-3.293 3.292-5.904 7.201-7.686 11.503s-2.699 8.912-2.699 13.569c0 4.656 0.918 9.267 2.699 13.569s4.393 8.21 7.686 11.503c3.293 3.293 7.201 5.904 11.503 7.686s8.913 2.699 13.569 2.699c4.657 0 9.267-0.917 13.569-2.699s8.211-4.393 11.504-7.686l163.996-163.995 163.999 163.995c3.292 3.293 7.204 5.904 11.505 7.686s8.909 2.699 13.568 2.699c4.654 0 9.267-0.917 13.568-2.699s8.212-4.393 11.505-7.686c3.292-3.293 5.903-7.201 7.685-11.503s2.698-8.913 2.698-13.569c0-4.657-0.916-9.267-2.698-13.569s-4.393-8.211-7.685-11.503h-0.097z" />
<glyph unicode="&#xe963;" glyph-name="divider" d="M98.869 908.8h826.264c26.327 0 47.667-21.343 47.667-47.669v-158.897c0-26.327-21.34-47.669-47.667-47.669h-826.264c-26.327 0.002-47.669 21.343-47.669 47.669v158.897c0 26.327 21.343 47.669 47.669 47.669zM98.869 241.434h826.264c26.327 0 47.667-21.34 47.667-47.667v-158.899c0-26.327-21.34-47.667-47.667-47.667h-826.264c-26.327 0-47.669 21.34-47.669 47.667v158.899c0 26.327 21.343 47.667 47.669 47.667zM532.547 547.994c2.995-2.899 7.009-4.505 11.177-4.471 4.173 0.034 8.161 1.705 11.11 4.654 2.944 2.948 4.618 6.937 4.654 11.106 0.031 4.169-1.572 8.185-4.475 11.181l-31.78 31.779c-2.98 2.978-7.020 4.652-11.233 4.652-4.211 0-8.252-1.673-11.232-4.652l-31.779-31.779c-2.899-2.996-4.505-7.012-4.471-11.181s1.705-8.158 4.654-11.106c2.948-2.948 6.937-4.62 11.106-4.654s8.185 1.571 11.181 4.471l4.655 4.657v-88.76h-15.89c-4.214 0-8.256-1.674-11.236-4.654s-4.654-7.022-4.654-11.236c0-4.214 1.674-8.259 4.654-11.238s7.022-4.654 11.236-4.654h15.89v-88.755l-4.655 4.654c-2.996 2.898-7.012 4.506-11.181 4.47s-8.158-1.705-11.106-4.654c-2.948-2.949-4.619-6.938-4.654-11.105s1.571-8.187 4.471-11.182l31.779-31.78c2.98-2.975 7.021-4.649 11.232-4.649 4.214 0 8.253 1.674 11.233 4.649l31.78 31.78c2.903 2.995 4.506 7.014 4.475 11.182-0.036 4.168-1.71 8.156-4.654 11.105-2.949 2.949-6.938 4.618-11.11 4.654-4.168 0.036-8.182-1.572-11.177-4.47l-4.654-4.654v88.755h15.887c4.214 0 8.259 1.674 11.238 4.654s4.654 7.025 4.654 11.238c0 4.214-1.674 8.256-4.654 11.236s-7.025 4.654-11.238 4.654h-15.887v88.76l4.654-4.657zM416.661 463.89h-63.558c-4.215 0-8.257-1.674-11.236-4.654s-4.654-7.022-4.654-11.236c0-4.214 1.674-8.259 4.654-11.238s7.022-4.654 11.236-4.654h63.558c4.215 0 8.257 1.674 11.236 4.654s4.654 7.025 4.654 11.238c0 4.214-1.674 8.256-4.654 11.236s-7.022 4.654-11.236 4.654zM289.545 463.89h-63.558c-4.214 0-8.256-1.674-11.236-4.654s-4.655-7.022-4.655-11.236c0-4.214 1.674-8.259 4.655-11.238s7.022-4.654 11.236-4.654h63.558c4.214 0 8.256 1.674 11.236 4.654s4.654 7.025 4.654 11.238c0 4.214-1.674 8.256-4.654 11.236s-7.022 4.654-11.236 4.654zM162.427 463.89h-63.558c-4.214 0-8.256-1.674-11.236-4.654s-4.655-7.022-4.655-11.236c0-4.214 1.674-8.259 4.655-11.238s7.022-4.654 11.236-4.654h63.558c4.214 0 8.256 1.674 11.236 4.654s4.654 7.025 4.654 11.238c0 4.214-1.674 8.256-4.654 11.236s-7.022 4.654-11.236 4.654zM925.133 463.89h-63.56c-4.214 0-8.259-1.674-11.238-4.654s-4.654-7.022-4.654-11.236c0-4.214 1.674-8.259 4.654-11.238s7.025-4.654 11.238-4.654h63.56c4.214 0 8.253 1.674 11.233 4.654s4.654 7.025 4.654 11.238c0 4.214-1.674 8.256-4.654 11.236s-7.020 4.654-11.233 4.654zM798.013 463.89h-63.555c-4.219 0-8.259-1.674-11.238-4.654s-4.654-7.022-4.654-11.236c0-4.214 1.674-8.259 4.654-11.238s7.020-4.654 11.238-4.654h63.555c4.214 0 8.259 1.674 11.238 4.654s4.654 7.025 4.654 11.238c0 4.214-1.674 8.256-4.654 11.236s-7.025 4.654-11.238 4.654zM670.899 463.89h-63.56c-4.214 0-8.259-1.674-11.238-4.654s-4.654-7.022-4.654-11.236c0-4.214 1.674-8.259 4.654-11.238s7.025-4.654 11.238-4.654h63.56c4.214 0 8.253 1.674 11.233 4.654s4.654 7.025 4.654 11.238c0 4.214-1.674 8.256-4.654 11.236s-7.020 4.654-11.233 4.654z" />
<glyph unicode="&#xe964;" glyph-name="color" d="M512 960c-282.739 0-512-229.261-512-512s229.261-512 512-512c47.22 0 85.332 38.116 85.332 85.332 0 22.188-8.248 42.1-22.184 57.176-13.368 15.071-21.336 34.7-21.336 56.604 0 47.22 38.116 85.332 85.336 85.332h100.408c157.012 0 284.444 127.432 284.444 284.447 0 251.448-229.26 455.109-512 455.109zM199.112 448c-47.219 0-85.334 38.116-85.334 85.333 0 47.219 38.115 85.334 85.334 85.334s85.333-38.115 85.333-85.334c0-47.217-38.117-85.333-85.333-85.333zM369.779 675.555c-47.219 0-85.333 38.115-85.333 85.333s38.115 85.334 85.333 85.334c47.219 0 85.334-38.115 85.334-85.334s-38.117-85.333-85.334-85.333zM654.22 675.555c-47.216 0-85.332 38.115-85.332 85.333s38.116 85.334 85.332 85.334c47.22 0 85.336-38.115 85.336-85.334s-38.116-85.333-85.336-85.333zM824.888 448c-47.22 0-85.332 38.116-85.332 85.333 0 47.219 38.111 85.334 85.332 85.334s85.332-38.115 85.332-85.334c0-47.217-38.111-85.333-85.332-85.333z" />
<glyph unicode="&#xe965;" glyph-name="delete" horiz-adv-x="910" d="M847.98 768.332c18.443 0 33.798-15.312 33.798-34.797v-18.014c0-19.011-15.354-34.797-33.798-34.797h-785.694c-18.489 0-33.842 15.786-33.842 34.797v18.014c0 19.484 15.353 34.797 33.842 34.797h138.226c28.079 0 52.515 19.958 58.832 48.118l7.239 32.332c11.25 44.041 48.273 73.291 90.644 73.291h195.767c41.909 0 79.348-29.25 90.185-70.968l7.743-34.607c6.269-28.207 30.709-48.166 58.834-48.166h138.223zM777.756 109.796c14.433 134.491 39.697 454.014 39.697 457.237 0.922 9.766-2.258 19.011-8.573 26.453-6.781 6.969-15.354 11.093-24.804 11.093h-657.569c-9.498 0-18.535-4.124-24.805-11.093-6.362-7.443-9.498-16.687-9.037-26.453 0.085-0.592 0.992-11.847 2.507-30.664 6.733-83.591 25.487-316.408 37.605-426.573 8.576-81.163 61.829-132.176 138.964-134.025 59.523-1.371 120.845-1.849 183.549-1.849 59.062 0 119.048 0.478 180.414 1.849 79.809 1.377 133.018 51.484 142.052 134.025z" />
<glyph unicode="&#xe966;" glyph-name="close1" d="M233.383 726.615c6 5.992 14.133 9.358 22.614 9.358s16.613-3.366 22.614-9.358l233.386-233.386 233.388 233.386c2.929 3.144 6.461 5.666 10.388 7.415 3.922 1.749 8.161 2.69 12.457 2.765s8.566-0.715 12.549-2.324c3.983-1.61 7.603-4.005 10.644-7.044 3.036-3.039 5.432-6.659 7.040-10.643 1.613-3.984 2.401-8.252 2.324-12.549s-1.014-8.534-2.765-12.46c-1.746-3.925-4.27-7.458-7.414-10.387l-233.385-233.387 233.385-233.386c3.144-2.929 5.668-6.461 7.414-10.388 1.751-3.922 2.688-8.161 2.765-12.457s-0.712-8.566-2.324-12.549c-1.608-3.988-4.004-7.603-7.040-10.644-3.041-3.036-6.661-5.432-10.644-7.045-3.983-1.608-8.253-2.396-12.549-2.324-4.296 0.077-8.535 1.019-12.457 2.77-3.927 1.746-7.46 4.27-10.388 7.414l-233.388 233.385-233.386-233.385c-6.066-5.652-14.090-8.73-22.38-8.586-8.29 0.148-16.2 3.507-22.063 9.37s-9.222 13.773-9.368 22.062c-0.146 8.289 2.931 16.312 8.583 22.38l233.386 233.386-233.386 233.387c-5.992 6-9.358 14.133-9.358 22.613s3.366 16.613 9.358 22.614z" />
</font>
</defs>
</svg>
